<?xml version="1.0" standalone="no"?>
<!DOCTYPE svg PUBLIC "-//W3C//DTD SVG 1.1//EN" "http://www.w3.org/Graphics/SVG/1.1/DTD/svg11.dtd" >
<svg xmlns="http://www.w3.org/2000/svg" xmlns:xlink="http://www.w3.org/1999/xlink" version="1.1">
<metadata>
Created by FontForge 20170731 at Wed Feb 17 10:10:23 2016
 By Aleksey,,,
Copyright (c) 2016 by Brittney Murphy. All rights reserved.
</metadata>
<defs>
<font id="HickoryJack-Light" horiz-adv-x="288" >
  <font-face 
    font-family="Hickory Jack"
    font-weight="400"
    font-stretch="normal"
    units-per-em="1000"
    panose-1="0 0 0 0 0 0 0 0 0 0"
    ascent="750"
    descent="-250"
    x-height="236.5"
    cap-height="463"
    bbox="-178.298 -364.882 828.452 699"
    underline-thickness="50"
    underline-position="-150"
    unicode-range="U+000D-2265"
  />
<missing-glyph horiz-adv-x="140" 
 />
    <glyph glyph-name=".notdef" horiz-adv-x="140" 
 />
    <glyph glyph-name=".null" horiz-adv-x="0" 
 />
    <glyph glyph-name="nonmarkingreturn" unicode="&#xd;" horiz-adv-x="140" 
 />
    <glyph glyph-name="NULL" horiz-adv-x="0" 
 />
    <glyph glyph-name="NULL" horiz-adv-x="0" 
 />
    <glyph glyph-name="space" unicode=" " horiz-adv-x="140" 
 />
    <glyph glyph-name="exclam" unicode="!" horiz-adv-x="174" 
d="M75 394q1 6 4.5 9t8 2.5t8 -4t3.5 -9.5q0 -50 -0.5 -88t-1.5 -74t-1.5 -74t-0.5 -87q0 -11 -9.5 -11.5t-11.5 10.5v88.5t0.5 75t0.5 74.5v88zM96 18q3 -9 0.5 -12.5t-7.5 -3.5t-10.5 3t-7.5 9q-2 8 5.5 13.5t15.5 -0.5q3 -4 4 -9z" />
    <glyph glyph-name="quotedbl" unicode="&#x22;" horiz-adv-x="203" 
d="M48 457q1 6 5 9t8 2.5t7.5 -4t3.5 -9.5q0 -51 2 -101.5t2 -101.5q0 -6 -3.5 -9.5t-8 -3.5t-8 3t-4.5 9q0 53 -2 103.5t-2 102.5zM129 446q1 6 4.5 9t8 2.5t8 -4t3.5 -9.5q0 -44 -0.5 -89.5t-1.5 -83.5q-5 -10 -13.5 -9t-10.5 12q-1 16 -0.5 37.5t1 44t1 46t0.5 44.5z" />
    <glyph glyph-name="numbersign" unicode="#" horiz-adv-x="491" 
d="M24 80q-11 2 -12 10.5t10 13.5q24 0 49 0.5t51 1.5l12 111q-32 -4 -54.5 -5.5t-30.5 -1.5q-11 2 -11.5 10.5t9.5 13.5l90 9l17 149q1 6 5 9t8 2.5t7.5 -4t3.5 -9.5l-16 -145l113 11l8 129q1 6 5 9t8.5 2.5t8 -4.5t3.5 -10l-8 -123l159 16q6 0 10 -3.5t4.5 -8t-2.5 -8
t-9 -4.5q-41 -5 -82 -9l-82 -8l-7 -120q60 4 105.5 7t67.5 4q6 0 10 -3.5t4.5 -7.5t-2.5 -8t-9 -5l-178 -9l-6 -98q-5 -10 -13.5 -9.5t-10.5 11.5l6 95l-121 -6l-11 -103q-5 -10 -13.5 -9.5t-10.5 11.5l11 100zM147 107l119 6l7 118q-31 -4 -60 -6.5t-54 -5.5z" />
    <glyph glyph-name="dollar" unicode="$" horiz-adv-x="233" 
d="M107 417q2 12 12 12t12 -11v-26.5t1 -26.5q21 -1 46 -14q11 -8 7.5 -17t-16.5 -2q-10 5 -19.5 7.5t-17.5 3.5l3 -123q16 -12 33 -25t30 -25t19 -23t1 -20q-10 -17 -32 -28t-48 -14q1 -11 1 -23v-23q0 -6 -3.5 -9.5t-8 -3.5t-8 2.5t-4.5 8.5v23.5t-1 23.5q-18 1 -34.5 6
t-27 15t-14 25t4.5 36q3 6 8.5 7t9.5 -0.5t6 -5.5t-1 -10q-10 -26 6.5 -37.5t41.5 -12.5l-3 102q-17 14 -30.5 27.5t-20.5 27.5q-10 20 -10 37t7 30.5t20 22t30 11.5v52zM195 136q2 6 -16.5 20t-42.5 33q0 -20 0.5 -40t1.5 -40q20 2 36 9t21 18zM83 269q2 -7 9.5 -14.5
t17.5 -15.5l-2 101q-19 -6 -27.5 -24.5t2.5 -46.5z" />
    <glyph glyph-name="percent" unicode="%" horiz-adv-x="321" 
d="M81 215q-24 -2 -39 17t-18 43.5t6 47.5t32 30q18 5 32 -2.5t22.5 -22.5t12 -34t-0.5 -36t-15.5 -29.5t-31.5 -13.5zM257 234q10 -3 10 -12q17 -11 24.5 -32.5t4.5 -43t-16 -37.5t-38 -16q-23 0 -37 14t-18.5 33.5t0 40.5t18.5 35q8 14 20.5 15.5t31.5 2.5zM222 411
q6 11 14.5 6.5t9.5 -15.5l-152 -357q-6 -9 -14.5 -5t-7.5 14zM84 240q16 4 20.5 20t1 32.5t-13.5 28.5t-23 9q-14 -3 -19.5 -18t-3 -32t12 -30t25.5 -10zM242 117q14 -1 22 13t8.5 31t-7.5 31.5t-26 16.5q-16 -4 -23.5 -18.5t-6.5 -30.5t9 -29t24 -14z" />
    <glyph glyph-name="ampersand" unicode="&#x26;" horiz-adv-x="295" 
d="M233 -70q0 -6 -3.5 -9.5t-8 -3.5t-8 3t-4.5 9q-4 42 -18 80.5t-33 73.5q-4 -2 -6 -2q-9 -3 -27.5 -8.5t-37.5 -8t-36 1t-23 17.5q-6 13 1 28t20 29.5t28 27.5t24 23q-14 29 -23 59t-9 61q0 24 11 37.5t27 17.5t33.5 -1.5t29.5 -20t16 -37.5t-6 -55q-6 -14 -20 -30.5
t-31 -33.5q9 -20 19.5 -38.5t20.5 -37.5q26 10 50 19t39 11q6 0 9.5 -3.5t4 -7.5t-2.5 -8t-9 -5q-21 -2 -40.5 -9.5t-39.5 -15.5q19 -35 33.5 -74t19.5 -89zM99 268q4 -16 9 -30t11 -28q24 26 39 53.5t5 51.5q-9 21 -23 28t-26 0.5t-17.5 -25.5t2.5 -50zM48 93q14 -10 41 -5
t58 16l-36 67q-23 -23 -43 -43.5t-20 -34.5z" />
    <glyph glyph-name="quotesingle" unicode="'" horiz-adv-x="124" 
d="M48 445q1 6 5 9t8 2.5t7.5 -4t3.5 -9.5q0 -43 2.5 -86t2.5 -86q0 -6 -3.5 -9.5t-8 -3.5t-8 3t-4.5 9q0 45 -2.5 88t-2.5 87z" />
    <glyph glyph-name="parenleft" unicode="(" horiz-adv-x="210" 
d="M131 525q6 6 11 5t7 -5.5t1.5 -10.5t-6.5 -10q-20 -21 -38 -51t-32.5 -65t-24.5 -72.5t-12 -73.5q-2 -42 10 -79.5t33 -68.5t49 -55t60 -39q6 -3 7 -7.5t-1 -8.5t-7 -6.5t-11 0.5q-39 21 -70.5 48.5t-53 61.5t-32 72t-8.5 80q1 33 10.5 72.5t25 79t36.5 74.5t46 59z" />
    <glyph glyph-name="parenright" unicode=")" horiz-adv-x="193" 
d="M7 514q-6 13 3 18t14 -3q30 -38 61.5 -85.5t54.5 -99.5t33 -106.5t-2 -107.5q-6 -29 -23.5 -56t-41 -49.5t-52 -40t-56.5 -26.5q-11 0 -12 8.5t9 15.5q24 6 49 22.5t47 38.5t38 47t21 49q10 46 -1 97t-33 100.5t-51.5 95.5t-57.5 82z" />
    <glyph glyph-name="asterisk" unicode="*" horiz-adv-x="268" 
d="M31 316q-5 10 2 16.5t16 -0.5l67 -43l2 86q1 8 5.5 10.5t9 2t7.5 -4.5t2 -10q0 -5 0.5 -16t1 -23.5t1 -23.5t0.5 -15l59 46q10 8 17.5 1t-0.5 -18l-71 -55l89 -51q10 -8 4.5 -16.5t-16.5 -3.5l-85 48v-99q0 -13 -11 -13t-13 12q0 24 -1 49t-1 51l-74 -51q-4 -2 -8.5 -1.5
t-7 3.5t-2 7t5.5 9l74 56z" />
    <glyph glyph-name="plus" unicode="+" horiz-adv-x="235" 
d="M24 183q-12 2 -12 12.5t13 10.5h82q-1 30 -1 54v54q2 11 12 11t12 -10v-54.5t1 -54.5l79 1q13 0 14 -10t-12 -12l-79 -2l3 -117q0 -13 -11 -13t-13 12l-3 118h-85z" />
    <glyph glyph-name="comma" unicode="," horiz-adv-x="93" 
d="M24 35q1 9 8 15t17 3q15 -4 18 -17.5t-0.5 -30.5t-11.5 -33.5t-15 -25.5q-9 -6 -15.5 1t-1.5 16q9 11 14 25.5t5 28.5q-6 0 -11.5 4.5t-6.5 12.5v1z" />
    <glyph glyph-name="hyphen" unicode="-" horiz-adv-x="245" 
d="M74 185q-6 1 -9 4.5t-3 8t3.5 8t9.5 3.5h40.5t31.5 0.5t31.5 0.5h40.5q6 0 10 -3.5t4.5 -8t-2.5 -8t-9 -4.5h-41t-32.5 -0.5t-32.5 -0.5h-42z" />
    <glyph glyph-name="period" unicode="." horiz-adv-x="83" 
d="M24 35q1 10 7 14.5t12 3.5t11 -6t5 -14q-2 -8 -7 -12t-10.5 -4t-11 4.5t-6.5 12.5v1z" />
    <glyph glyph-name="slash" unicode="/" horiz-adv-x="164" 
d="M140 474q4 14 13 11.5t11 -15.5q-32 -126 -67.5 -253.5t-75.5 -245.5q-5 -11 -15 -9t-8 15q14 43 33.5 108.5t39.5 136.5t38.5 138t30.5 114z" />
    <glyph glyph-name="zero" unicode="0" horiz-adv-x="301" 
d="M158 457q10 0 13 -7t-2 -13q35 -14 60 -52t37 -86.5t11 -102t-16.5 -97.5t-46 -72.5t-77.5 -28.5q-37 0 -61 28t-36.5 71.5t-14 96t6 101.5t24.5 87.5t42 54.5q14 9 29 12t31 8zM94 388q-4 -2 -10 -2q-10 -14 -15.5 -32.5t-10.5 -47.5q-9 -53 -7.5 -109.5t19.5 -110.5
q15 -42 38 -56t47 -8t46 28.5t35 53.5q9 21 13.5 52t3 64.5t-9.5 67.5t-23 61.5t-37.5 45.5t-52.5 20q-9 -7 -18 -13t-18 -14z" />
    <glyph glyph-name="one" unicode="1" horiz-adv-x="106" 
d="M36 461q2 11 12 11t12 -10q2 -119 5 -236.5t4 -236.5q0 -6 -3.5 -9.5t-8 -3.5t-8 3t-4.5 9q-2 119 -5 237t-4 236z" />
    <glyph glyph-name="two" unicode="2" horiz-adv-x="271" 
d="M57 333q-7 -9 -15.5 -7t-8.5 14q3 17 17.5 33.5t34.5 28.5t42.5 18.5t41.5 4.5t32.5 -14t15.5 -37q3 -33 -13.5 -69t-41 -72.5t-52 -73.5t-46.5 -72q-13 -24 -9.5 -35.5t35.5 -11.5q37 -1 73 3.5t71 9.5q12 -2 13 -11t-9 -14q-52 -8 -84.5 -11t-52 -3t-30.5 1t-19 3
q-10 4 -19.5 13.5t-7.5 26.5q3 21 17 44.5t33 49.5t40 54t39 56t29 56.5t10 56.5q-4 19 -24 23t-43.5 -3t-44 -23.5t-24.5 -38.5z" />
    <glyph glyph-name="three" unicode="3" horiz-adv-x="256" 
d="M48 371q-13 2 -13.5 12t11.5 14q37 2 59.5 3t36.5 1.5t22 0.5h16q29 0 34.5 -11.5t-3.5 -29t-27.5 -38t-37.5 -39t-33 -32t-14 -16.5q6 -11 20 -20.5t31.5 -20.5t34.5 -22.5t29.5 -25.5t16.5 -31t-5 -38q-12 -24 -42.5 -39t-64.5 -17t-61.5 11.5t-33.5 46.5q1 11 10 13
t14 -9q3 -24 23.5 -32.5t46 -6t50 13t35.5 24.5q10 13 4.5 26.5t-20 27t-33.5 27t-36.5 25.5t-30 22t-12.5 18q-1 18 14.5 34t35.5 33t39 37t24 44q-35 0 -69.5 -2t-70.5 -4z" />
    <glyph glyph-name="four" unicode="4" 
d="M262 165q6 0 9.5 -3.5t4 -7.5t-2.5 -8t-9 -5q-8 0 -23 -0.5t-34 -1.5q2 -35 1.5 -69.5t-4.5 -69.5q-3 -8 -11 -8.5t-12 7.5q-6 9 0 13q3 32 3 62.5t-2 62.5q-23 1 -47 1.5t-46 2.5t-39 7.5t-25 15.5q-1 4 -2 6t1 6q8 19 29 40.5t44 43t42.5 43t25.5 41.5v7
q-2 23 -3.5 47.5t1.5 47.5q1 9 9 12q18 3 24.5 -9t6.5 -31t-4.5 -39.5t-9.5 -35.5q4 -45 8.5 -89.5t7.5 -89.5q22 0 38 0.5t19 0.5zM49 174q3 -3 16 -5t31.5 -3t41 -1.5t43.5 -0.5q-2 35 -5 68t-7 67q-8 -15 -26 -33t-37.5 -35t-35.5 -32t-21 -25z" />
    <glyph glyph-name="five" unicode="5" horiz-adv-x="285" 
d="M181 398q9 -8 5.5 -16t-14.5 -7q-4 2 -16 6.5t-25.5 8t-25.5 5.5t-15 -1q-8 -8 -12 -30.5t-3.5 -48t5 -48t12.5 -31.5q15 -15 42.5 -20t55.5 -12t48.5 -22.5t20.5 -52.5q0 -32 -24 -56.5t-58 -38t-71.5 -15t-64.5 13.5q-12 6 -16.5 16.5t6.5 27.5q8 11 17.5 7t4.5 -16
l-4 -9q14 -17 45.5 -18t63.5 10.5t55.5 33t22.5 48.5q-1 19 -12.5 29t-29 15.5t-38 9t-39.5 9t-33.5 15.5t-20.5 28q-8 26 -11 53.5t-1 53.5q3 37 14 53.5t28 19.5t39.5 -4t48.5 -17z" />
    <glyph glyph-name="six" unicode="6" horiz-adv-x="232" 
d="M64 434q1 6 4.5 9t8 2.5t8 -4t3.5 -9.5q-2 -21 -8 -51t-13 -63.5t-12.5 -69t-6 -68t5 -60t21.5 -44.5q0 19 9.5 46.5t26 48t37.5 26.5t45 -17q18 -19 15 -46t-19 -50.5t-40 -38.5t-48 -11q0 -31 11 -50q3 -10 -4.5 -15t-15.5 3q-11 17 -14.5 36t-5.5 38
q-24 16 -34.5 45.5t-12 65.5t3.5 76t12 78t14 70t9 53zM176 162q-15 14 -28.5 9t-23 -21.5t-16 -41t-7.5 -49.5q19 -5 37 7t30 30t15 37t-7 29z" />
    <glyph glyph-name="seven" unicode="7" horiz-adv-x="235" 
d="M43 352q-9 -5 -15.5 1.5t-0.5 15.5q26 23 59 35q51 20 78.5 18t38 -19t8 -45.5t-12 -60.5t-22.5 -64t-22 -57q-11 -31 -21 -67t-9 -68q2 0 3 0.5t2 0.5q12 0 14 -8.5t-8 -15.5l-12 -4q-5 0 -8 0.5t-6 4.5q-14 20 -10 51.5t16 67.5t28.5 74.5t28.5 73.5t15 64t-12 46
q-35 1 -69 -10t-63 -34z" />
    <glyph glyph-name="eight" unicode="8" horiz-adv-x="260" 
d="M200 355q-13 -38 -29 -64.5t-36 -52.5q23 -23 46 -48t37.5 -50.5t15 -50.5t-20.5 -48q-12 -12 -38 -19.5t-55 -7.5t-54.5 9.5t-35.5 30.5q-9 19 -6 39.5t12 39.5t21 36t21 31q7 9 12.5 17t10.5 16q-15 16 -28.5 34t-24 35t-15.5 31.5t-2 23.5q6 19 22.5 32t39 19.5
t48 6.5t50.5 -6l2 18q2 6 6.5 8.5t8.5 1t7 -6t2 -10.5q-1 -7 -2.5 -13t-3.5 -11q9 -11 7.5 -25.5t-15.5 -17.5zM204 112q-8 19 -32.5 46.5t-52.5 57.5q-11 -14 -21.5 -29.5t-21.5 -33.5q-8 -13 -15 -26.5t-9.5 -27t2 -27t18.5 -25.5q14 -11 40.5 -11t50.5 9t37.5 26t3.5 41z
M117 254q22 31 38.5 61.5t27.5 68.5q-20 4 -46 4t-46 -8t-28.5 -25t7.5 -46q6 -12 18.5 -25.5t28.5 -29.5z" />
    <glyph glyph-name="nine" unicode="9" horiz-adv-x="203" 
d="M92 416q13 5 29.5 6.5t28.5 -2.5l4 32q1 6 5 9t8 2.5t7.5 -4t3.5 -9.5v-223.5t-9 -222.5q-5 -11 -15 -9t-9 15q3 26 4.5 67t2.5 86.5t1.5 91.5t0.5 83q-9 -26 -21.5 -45t-27 -30.5t-28.5 -15.5t-26 0q-19 7 -24 30t1.5 50.5t23 52.5t40.5 36zM54 267q18 -4 35 10.5
t29.5 37t19.5 46t6 37.5q-27 8 -48 -5t-34 -35.5t-15.5 -48.5t7.5 -42z" />
    <glyph glyph-name="colon" unicode=":" horiz-adv-x="119" 
d="M60 59q1 10 7 14.5t12 3.5t11 -6t5 -14q-1 -8 -6 -12t-11 -4t-11.5 4.5t-6.5 12.5v1zM60 156q1 10 7 14t12 3t11 -6t5 -14q-1 -8 -6 -11.5t-11 -3.5t-11.5 4t-6.5 12v2z" />
    <glyph glyph-name="semicolon" unicode=";" horiz-adv-x="125" 
d="M60 156q1 10 7 14t12 3t11 -6t5 -14q-1 -8 -6 -11.5t-11 -3.5t-11.5 4t-6.5 12v2zM62 60q1 7 6 11t11 5t11.5 -2t8.5 -10q4 -10 2.5 -22t-5.5 -23.5t-9.5 -22t-10.5 -17.5q-9 -5 -15 1.5t-1 14.5q8 10 13 23.5t5 24.5q-14 0 -16 16v1z" />
    <glyph glyph-name="less" unicode="&#x3c;" horiz-adv-x="191" 
d="M127 273q10 8 17.5 0.5t-0.5 -17.5q-12 -11 -30 -24.5t-34.5 -26.5t-29 -24t-13.5 -17q2 -7 19.5 -17.5t39 -21t43 -19t30.5 -10.5q6 -2 8.5 -6t1.5 -8.5t-5 -7.5t-10 -2q-35 11 -74.5 29t-66.5 45q-18 20 -6 35q6 7 19 17.5t29 23t32.5 25.5t29.5 26z" />
    <glyph glyph-name="equal" unicode="=" horiz-adv-x="217" 
d="M24 216q-6 1 -9 4.5t-3 8t3.5 8t9.5 3.5q42 0 82.5 3t81.5 3q6 0 10 -3.5t4.5 -8t-2.5 -8t-9 -4.5q-42 0 -83.5 -3t-84.5 -3zM35 154q-12 2 -12 13t13 11q36 0 71.5 1.5t72.5 1.5q6 0 9.5 -3.5t4 -8t-2.5 -8t-9 -4.5q-36 0 -73 -1.5t-74 -1.5z" />
    <glyph glyph-name="greater" unicode="&#x3e;" horiz-adv-x="192" 
d="M21 253q-11 4 -9 13t15 9q20 -6 41.5 -13.5t41 -16t35.5 -17.5t26 -18q19 -16 1 -36q-33 -38 -132 -100q-9 -6 -15 2.5t2 15.5q19 13 41.5 28t42 28.5t32.5 25t13 17.5q-1 6 -14.5 14t-33.5 16t-43.5 16.5t-43.5 15.5z" />
    <glyph glyph-name="question" unicode="?" horiz-adv-x="163" 
d="M29 338q-6 -2 -10 0.5t-5.5 7t-0.5 9.5t6 7q13 4 32 8.5t38.5 4t35.5 -7.5t22 -26q6 -18 1.5 -39.5t-14.5 -43.5t-22.5 -45t-22.5 -44t-15 -39.5t0 -33.5q10 -7 6.5 -16.5t-14.5 -3.5q-16 10 -16.5 28.5t7 42.5t21 50.5t25 51.5t19 46t3.5 35q-5 17 -26.5 20.5
t-69.5 -12.5zM80 12q-5 -3 -10 -1t-7.5 6t-3 9t3.5 9q5 4 10.5 3t9 -5.5t3.5 -10.5t-6 -10z" />
    <glyph glyph-name="at" unicode="@" horiz-adv-x="444" 
d="M109 125q0 20 13 36t31.5 25.5t39 11t36.5 -6.5q3 15 4 30t2 33q2 5 6 7t8 1t7 -3.5t3 -6.5v-1q0 -29 -1.5 -54.5t-5.5 -51.5q-5 -37 1.5 -69t22 -47t38.5 -8t53 49q28 40 27 88t-24 88t-64.5 64.5t-92.5 18.5q-52 -6 -92.5 -38t-62.5 -81t-22.5 -91t15 -74.5t43 -55
t60.5 -33.5t69 -9t68 18q6 3 10 1.5t5.5 -5.5t0.5 -9t-7 -9q-43 -18 -84 -20.5t-77 10.5t-65.5 40t-49.5 66q-14 28 -16 61t6.5 67.5t26.5 66.5t43.5 57.5t58 42.5t69.5 19q158 12 202 -155q10 -42 -1 -82t-33 -70t-50 -44.5t-53 -5.5q-17 6 -26.5 20t-15 31t-7 35.5
t-1.5 35.5v1q-5 -6 -9.5 -13t-11.5 -12q-14 -13 -30.5 -19t-31.5 -3t-25 15.5t-10 37.5zM201 125q14 20 22 40q-9 9 -24.5 9t-30.5 -6.5t-25.5 -18t-9.5 -25.5q1 -21 9.5 -27t19 -2.5t21.5 12.5t18 18z" />
    <glyph glyph-name="A" unicode="A" horiz-adv-x="416" 
d="M14 124q-11 2 -11.5 10.5t9.5 13.5q9 0 18 0.5t18 1.5q7 40 16 82t20 81t24 72.5t28 55.5q6 8 22 12.5t24 -3.5q15 -32 25 -66t17.5 -68.5t14 -70t14.5 -69.5l88 12q6 0 10 -3.5t4.5 -8t-2.5 -8t-9 -4.5q-22 -2 -43 -5l-42 -6q4 -14 8 -27.5t9 -27.5q6 -17 13 -33
t16.5 -24.5t22.5 -7t30 20.5q20 22 36.5 48t21.5 37q7 14 13.5 28.5t10.5 26.5q7 13 15 10t8 -16q-5 -20 -17.5 -46t-29.5 -53q-14 -22 -33 -45t-40 -33.5t-41.5 -2.5t-37.5 49q-11 22 -18 45t-12 48q-42 -6 -83 -11.5t-80 -10.5l-20 -110q-4 -11 -15 -9.5t-11 13.5
q5 21 9.5 47.5t9.5 56.5q-8 -1 -15 -1.5t-15 -0.5zM165 428q-16 -11 -29 -39t-24 -65.5t-20 -81.5t-17 -89q38 4 77 9.5t77 10.5q-7 32 -12.5 64.5t-12 65t-16 64t-23.5 61.5z" />
    <glyph glyph-name="B" unicode="B" horiz-adv-x="543" 
d="M218 169q-14 0 -37.5 1.5t-50 6t-53 12.5t-45 22t-26 34t3.5 48q9 26 32 52.5t51.5 48.5t58 37.5t52.5 18.5q11 0 13 -7q10 -23 14 -50q11 26 29.5 41t40 18.5t45.5 -4t45 -27.5q30 -29 42.5 -59t8.5 -59.5t-23 -56.5t-51 -49q18 -2 40 -7.5t43 -15t36.5 -24t19.5 -33.5
q6 -30 -20.5 -55.5t-68.5 -40.5t-90.5 -17t-85.5 13v-9q0 -5 -4 -8.5t-8.5 -4t-8 2t-3.5 8.5v24q-23 16 -31 40q0 11 8 13.5t15 -7.5q2 -4 4 -7.5t4 -7.5v108zM481 109q-1 18 -17.5 30t-39 19.5t-46 11t-39.5 5.5q-14 -7 -28 -10t-25 3q-6 4 -7 13q1 17 18 19.5t35 0.5
q16 10 32.5 23t29 29t19 35.5t3.5 41.5q-4 25 -22 50t-41.5 38.5t-48 10.5t-42.5 -33q-10 -17 -15 -41t-7 -48q3 -56 2.5 -124t-0.5 -143q28 -16 69.5 -15.5t79.5 12t64.5 31t25.5 41.5zM34 291q-9 -23 -2 -39t23 -27t39 -17.5t46.5 -9.5t44 -4t33.5 -1v65.5t-2 66.5
t-6 58.5t-11 41.5q-15 -3 -39 -16t-49.5 -32t-46.5 -41.5t-30 -44.5z" />
    <glyph glyph-name="C" unicode="C" horiz-adv-x="387" 
d="M245 375q11 -35 17.5 -60.5t6.5 -44.5q0 -11 -4 -16t-9 -5t-9 4t-3 12q1 13 -1.5 27t-6.5 30q-5 19 -12.5 38t-17.5 34t-22.5 25.5t-26.5 12.5q-22 3 -40 -8t-32.5 -31.5t-25 -47.5t-17.5 -55.5t-10.5 -56t-2.5 -48.5q1 -22 3.5 -43.5t8 -40.5t14 -34t21.5 -24
q23 -15 52.5 -17.5t62 5t65.5 23.5t62.5 37.5t53.5 48t39 54.5q7 10 15 8t8 -14q-12 -31 -37 -60.5t-57.5 -54t-69.5 -42t-75 -25t-73.5 -3t-63.5 24.5t-39.5 60t-12.5 86t6.5 90t16.5 71q7 19 19.5 42t29.5 42t38 30.5t44 7.5q25 -4 47 -27t38 -55z" />
    <glyph glyph-name="D" unicode="D" horiz-adv-x="410" 
d="M112 468q4 12 13 12.5t11 -10.5q-1 -11 -0.5 -22.5t0.5 -22.5q30 -4 71.5 -21t80 -43.5t67 -60.5t33.5 -72q6 -44 -21 -77.5t-67.5 -57.5t-85 -39t-75.5 -23l-2 -4q-1 -6 -5 -14t-9.5 -14.5t-12.5 -9t-14 2.5q-5 2 -8.5 10.5t-9.5 19.5q-14 2 -18 10.5t8 24.5
q-24 64 -43 130t-20.5 119.5t22 87t85.5 32.5q0 11 -0.5 21t0.5 21zM362 224q-5 34 -29.5 64.5t-58 53.5t-70.5 38t-67 19q0 -32 2 -73t4.5 -87t3 -93t-2.5 -91q25 6 64 19t75 34t60 50t19 66zM119 52q4 37 4.5 81.5t-1.5 91t-5 92.5t-5 85q-41 5 -59 -15t-21 -54t5.5 -77
t21 -84t24.5 -75t17 -50q10 0 18 5h1zM109 18l1.5 3t0.5 3q-1 0 -2 -0.5t-3 -0.5z" />
    <glyph glyph-name="E" unicode="E" horiz-adv-x="438" 
d="M267 431q9 -8 5.5 -16.5t-14.5 -6.5q-21 6 -54 2t-63 -15.5t-51 -30t-19 -41.5q1 -15 19.5 -23t42 -11t47 -2.5t35.5 0.5q26 13 45 11t25 -9.5t-3.5 -16t-39.5 -8.5q-35 -8 -69 -19.5t-69 -34.5q-32 -20 -51 -43.5t-22 -46t12 -42t53 -31.5q32 32 71.5 56.5t74.5 36.5
q14 4 41 9t54.5 5t49.5 -8.5t25 -30.5q5 -26 -18 -49t-70 -37q-19 -6 -46 -11t-57.5 -7.5t-61.5 -1.5t-56 8q-29 -35 -38.5 -72t-0.5 -84q0 -11 -9.5 -12.5t-14.5 7.5q-4 18 -5.5 37.5t1.5 40.5t12.5 44t28.5 47q-51 22 -65 54t0 65.5t52.5 65t91.5 52.5q-13 0 -31 2.5
t-34.5 8t-29 16t-14.5 27.5q-3 23 8 42t30 33.5t44 24.5t50.5 14.5t49 5t38.5 -4.5zM250 116q-33 -11 -66.5 -32t-61.5 -47q18 -5 45 -6.5t56.5 1t58.5 8.5t52.5 16t38 24t14.5 31q-5 11 -21 15.5t-36.5 4t-42 -4.5t-37.5 -10z" />
    <glyph glyph-name="F" unicode="F" horiz-adv-x="514" 
d="M450 390q12 0 14 -9t-8 -16q-48 -11 -81.5 -7t-61.5 15q-6 -46 8 -110q44 12 87 23.5t88 25.5q11 0 13.5 -8.5t-7.5 -15.5q-44 -14 -87 -25t-88 -24q5 -30 10.5 -60.5t6.5 -59t-4.5 -53.5t-22.5 -44q-16 -19 -48.5 -27t-70.5 -7t-76.5 10.5t-67.5 26.5t-43 40t-3 50
q14 33 48 55t76 38t86.5 26.5t78.5 21.5q-8 30 -9.5 65.5t1.5 61.5l-22 11q-8 -5 -26 -15t-41.5 -20.5t-50 -19.5t-49.5 -12.5t-40.5 1.5t-24.5 23q-5 15 1 33.5t22 34.5t40 26t54 6q32 -5 58.5 -13.5t51.5 -19.5q0 1 2 3q8 4 12.5 -0.5t4.5 -10.5q18 -8 36 -14t38.5 -9.5
t43.5 -3t51 6.5zM301 232q-51 -14 -97 -28t-81.5 -29t-58.5 -31.5t-29 -34.5q-8 -24 5.5 -42t39 -30.5t58.5 -18.5t64.5 -6.5t58 5.5t37.5 18q16 18 19.5 43.5t1 53t-8.5 54t-9 46.5zM60 357q7 -9 29 -7t49 10.5t54.5 20.5t47.5 24q-19 8 -41 14t-48 8q-18 1 -36.5 -3.5
t-33 -13.5t-21 -22.5t-0.5 -30.5z" />
    <glyph glyph-name="G" unicode="G" horiz-adv-x="431" 
d="M12 188q-12 7 -7.5 17t16.5 6q11 -5 24.5 -9t34.5 -5q-1 28 5 62t18 67t30 61.5t40 46.5t49 21.5t57 -14.5t37 -44t-3 -55.5t-33 -59t-52.5 -53.5t-62 -39t-61.5 -15v-1q5 -49 19 -77.5t33.5 -40.5t42 -9.5t44 15.5t40.5 35.5t32 49.5q0 25 3 47t14 41q5 8 13 8t11 -10
q1 -23 -3.5 -47t-14.5 -47q0 -34 6 -61t14 -61l63 23q12 0 14 -9t-8 -15l-63 -23q16 -58 26 -117t-5 -116q-14 -51 -48.5 -80t-78.5 -39t-91 -3t-84 28q-40 23 -53.5 49.5t-8 54t26 55t48.5 52t59.5 45.5t59.5 35q29 15 59.5 27.5t61.5 25.5q-5 26 -10 46t-9 45
q-38 -50 -78.5 -67t-74 -6t-57 48t-27.5 96q-23 0 -39.5 5t-28.5 11zM362 -233q11 46 3 102t-22 115q-30 -11 -60 -23t-59 -26q-23 -11 -50.5 -28.5t-52.5 -39.5t-44.5 -46t-26 -48.5t4 -47t45.5 -40.5q32 -17 73 -21t79.5 5.5t68.5 33.5t41 64zM268 420q-29 13 -52.5 6.5
t-42 -25t-32 -46t-22.5 -56.5t-13 -56t-3 -44q23 0 50 12t52.5 31t46.5 42.5t31.5 48t8 47.5t-23.5 40z" />
    <glyph glyph-name="H" unicode="H" horiz-adv-x="581" 
d="M581 89q-16 -26 -36 -48.5t-40.5 -30.5t-39 4t-32.5 55q-6 19 -10 39.5t-6 43.5q-60 -9 -120.5 -18t-120.5 -21q-3 -31 -4 -59t3 -52q6 0 10 -6t-3 -14l-5 -6q-8 -7 -18 1q-7 7 -9 23t-2 35.5t1.5 39t3.5 33.5l-59 -14q-7 0 -10.5 2.5t-4.5 6.5t1.5 8.5t7.5 6.5
q17 5 33.5 8.5t33.5 7.5q4 39 10 76t11.5 73t8 71t0.5 71q-35 -1 -65.5 -20.5t-52 -47t-31.5 -58.5t-2.5 -54t35.5 -33t81 3q11 0 13.5 -9t-7.5 -15q-16 -4 -33 -7t-34 -3q-50 8 -69 33t-16 57.5t22.5 67.5t48 62t61 41.5t59.5 6.5q17 -6 15.5 -32.5t-5.5 -76.5
q-5 -54 -12.5 -104.5t-13.5 -97.5q60 12 118.5 21t118.5 18q-3 66 2 131.5t7 112.5q1 6 4.5 9t8 2.5t8 -4.5t3.5 -10q-1 -20 -3 -47t-3.5 -58.5t-2 -65t1.5 -65.5l51 9q12 -2 14 -10.5t-9 -14.5l-55 -10q2 -19 4 -36t6 -33q10 -44 27.5 -50.5t36 8.5t36 42.5t28.5 51.5
q7 14 14 28.5t10 26.5q7 13 15 10t8 -16q-5 -20 -17.5 -46t-29.5 -53z" />
    <glyph glyph-name="I" unicode="I" 
d="M228 188q14 3 16.5 -7.5t-15.5 -16.5q0 -30 -4 -58.5t-13 -51.5t-24 -39t-36 -22q-18 -5 -40.5 -2t-43.5 11.5t-38.5 22t-24.5 29.5q-1 11 7 14.5t16 -5.5q3 -8 14 -18.5t27.5 -18.5t36 -12t38.5 2q18 5 30 19t19 34t10 43.5t3 47.5q-26 -5 -57.5 -1t-59.5 17t-49.5 34.5
t-28.5 53.5q-6 30 12.5 65t47 65t58.5 49.5t47 19.5q9 0 11 -4q6 -10 13 -40t13 -69.5t10.5 -82.5t4.5 -79zM35 270q6 -24 24.5 -42.5t42.5 -29.5t51.5 -15t52.5 2q0 34 -3.5 73t-8.5 74.5t-11.5 63t-11.5 38.5q-16 0 -41.5 -18t-48 -44t-37 -54t-9.5 -48z" />
    <glyph glyph-name="J" unicode="J" horiz-adv-x="382" 
d="M209 456q-1 7 2 11t7.5 4.5t8.5 -2t6 -8.5q7 -60 26.5 -128.5t37.5 -140.5l61 30q16 -8 6 -21q-16 -7 -31 -14.5t-30 -15.5q18 -75 25 -123.5t8 -86.5q1 -20 0 -49t-7 -59.5t-18.5 -58t-33.5 -45.5q-35 -28 -75 -31t-76.5 12t-66 44.5t-44.5 67t-11 78.5t35 79
q48 61 106.5 102.5t130.5 80.5q-18 69 -38.5 136t-28.5 138zM312 -45q-1 51 -9 101.5t-22 101.5q-24 -13 -55 -31.5t-61.5 -40.5t-59 -48t-48.5 -54q-26 -37 -28 -74t12 -68.5t41 -55.5t58.5 -36t64 -9t57.5 26q18 18 28 40.5t15.5 47t6.5 50t0 50.5z" />
    <glyph glyph-name="K" unicode="K" horiz-adv-x="570" 
d="M156 204q10 -3 9.5 -12.5t-12.5 -11.5q-14 0 -33 0.5t-38.5 4t-37.5 12.5t-30 27t-9.5 41t15 47t32.5 47t42 42t44.5 32.5t39.5 18.5q4 1 11.5 3t15 2t14 -1.5t8.5 -5.5q6 -15 10 -39t6.5 -54t3 -64t0.5 -69q24 23 48.5 48.5t46 48.5t39 41.5t27.5 27.5q10 10 17 2
t-2 -18q-10 -9 -30.5 -31t-45 -47.5t-48.5 -51t-41 -41.5q21 10 44.5 17.5t47 11.5t45.5 2.5t40 -10.5q25 -11 40.5 -39.5t27.5 -65.5t22.5 -76.5t25.5 -72.5t37 -54t57 -20q20 1 39.5 6.5t39.5 9.5q6 0 9.5 -3.5t3.5 -8t-3 -8t-9 -4.5q-18 -4 -36 -8.5t-36 -6.5t-36 0.5
t-35 13.5q-26 18 -42 47t-27.5 63t-20 68.5t-20 64.5t-28 51.5t-42.5 28.5q-18 4 -38.5 2t-41 -9t-40 -16.5t-36.5 -18.5q-2 -58 -3.5 -104.5t-2.5 -63.5q-1 -6 -5.5 -9t-9 -3t-8 3t-1.5 9q3 21 5 62.5t2 92.5q-24 -15 -30 -16q-10 -3 -16 8q-2 13 12 24q8 6 16.5 14
t17.5 16q0 39 -1 76.5t-3 69t-5 54.5t-7 31q-18 -1 -40.5 -11t-44.5 -26t-42.5 -36.5t-33.5 -42t-17 -42t6 -36.5q9 -15 24.5 -22t32.5 -10t34 -2.5t30 0.5z" />
    <glyph glyph-name="L" unicode="L" horiz-adv-x="417" 
d="M10 172q-9 6 -8 15.5t12 9.5q45 -11 84 -14.5t74 4.5q-3 24 -6 52t-3.5 57.5t2 57.5t10.5 51q11 31 29.5 46t40 17t44.5 -6.5t42 -24.5t32.5 -38t16.5 -46q4 -31 -14 -60.5t-46.5 -54.5t-61.5 -42.5t-59 -24.5q6 -40 6.5 -69t-7.5 -57q47 -21 88 -45.5t79 -39t74.5 -12.5
t75.5 34q9 4 15 -2.5t1 -14.5q-44 -33 -80 -38.5t-74 6.5t-82 36.5t-103 52.5q-13 -26 -33.5 -45.5t-47.5 -27.5q-25 -7 -45 -1t-32.5 20.5t-16 35t4.5 42.5q7 19 26.5 24t43 2.5t46.5 -9.5t37 -11q8 32 5 58t-5 53q-39 -10 -78.5 -6t-86.5 15zM189 347q-2 -36 0.5 -74.5
t7.5 -77.5q21 8 48.5 22t52 33t41.5 43t17 51q0 23 -14.5 48t-50.5 42q-27 13 -45.5 9.5t-30.5 -18t-18 -35.5t-8 -43zM103 -28q23 7 38.5 22.5t26.5 35.5q-18 6 -37 11.5t-35.5 7.5t-29.5 -1t-20 -13q-6 -9 -5.5 -22t8 -23.5t21.5 -16.5t33 -1z" />
    <glyph glyph-name="M" unicode="M" horiz-adv-x="655" 
d="M213 176q-25 0 -50 -1.5t-50 0.5t-49.5 9t-47.5 22q-14 10 -16.5 24t0.5 29t9.5 28.5t9.5 21.5q10 20 31.5 47t48.5 51.5t56 41.5t56 17q6 0 9.5 -3.5t6.5 -9.5q14 -60 14.5 -125.5t-1.5 -128.5l3 -2q10 68 20.5 119.5t24.5 85.5q3 6 7.5 7t9.5 0q13 -1 22 -22.5
t16 -54.5t13 -72.5t14.5 -78t20.5 -70.5t30 -49q12 5 22 26.5t18.5 51.5t16.5 65t16 68.5t16.5 62t17.5 43.5v-2q5 6 11 4.5t11 -7t8.5 -14t3.5 -17.5q0 -12 1.5 -39.5t5 -63.5t10.5 -76t18 -78q13 -46 29 -77.5t40 -45.5t58.5 -10t84.5 28q12 5 17.5 -4.5t-4.5 -18.5
q-98 -46 -158.5 -19.5t-89.5 138.5q-10 38 -16.5 78t-10 76t-6 64.5t-4.5 44.5q-11 -32 -20.5 -77t-21 -89.5t-26 -81t-35.5 -51.5q-6 -5 -12.5 -5.5t-10.5 1.5q-28 27 -44 70.5t-26 92t-17.5 96.5t-17.5 85l-1 1q-11 -18 -19.5 -62t-15.5 -98.5t-13.5 -110.5t-13.5 -98
q0 -1 0.5 -1.5t0.5 -1.5q0 -10 -10 -12q-10 -5 -16 7v4q-7 42 -5 82t0 85zM31 222q13 -13 36.5 -18t50 -6.5t52.5 0t46 2.5q1 60 1 121.5t-12 119.5q-20 0 -44.5 -16.5t-48 -40t-43 -48t-28.5 -39.5q-3 -6 -8 -15t-8 -19.5t-2.5 -21.5t8.5 -19zM239 176v-10q0 2 0.5 4.5
t0.5 5.5h-1z" />
    <glyph glyph-name="N" unicode="N" horiz-adv-x="514" 
d="M210 -13q-7 15 -11 36.5t-5.5 44.5t-1.5 46.5t1 43.5h-1q-19 -2 -42 -4t-46 0.5t-44.5 11t-37.5 27.5q-18 21 -18 50t11.5 60t32 60.5t45 51.5t49 33.5t44.5 6.5t32 -29.5t11 -74.5q0 -19 -0.5 -30.5t-1.5 -25t-2.5 -32.5t-3.5 -53q-2 -27 -3 -49t-0.5 -42.5t1.5 -41
t4 -44.5q6 15 14 42.5t17.5 61t20 71t23 72t27 63t30.5 45.5q3 4 10.5 9t15.5 7.5t16 1t12 -11.5q9 -34 12 -85.5t7.5 -108.5t15 -111t33.5 -92t62.5 -53t103.5 7q6 0 9.5 -3.5t4 -8t-2.5 -8.5t-9 -5q-69 -22 -113.5 -7t-70.5 53t-38.5 92t-18 112t-8 112.5t-9.5 92.5
q-19 -15 -34.5 -42.5t-28.5 -62t-24 -73t-22 -76t-22 -71t-24 -58.5q0 -9 -9 -14.5t-13 3.5zM41 209q15 -19 39 -25.5t47.5 -6.5t42.5 2.5t24 1.5q1 28 2.5 48.5t2.5 39t2.5 38.5t3.5 48q4 53 -11 69t-38.5 6t-50.5 -38t-46.5 -62t-26.5 -67.5t9 -53.5z" />
    <glyph glyph-name="O" unicode="O" horiz-adv-x="455" 
d="M136 4q-34 6 -59.5 27t-42 51.5t-24 68.5t-5.5 77q2 45 19.5 94.5t52.5 83.5q29 30 66.5 40t76.5 4t75.5 -26t65 -49.5t45 -67.5t14.5 -79q-2 -20 -6.5 -40t-13.5 -41q6 4 12 6t13 6q6 3 10 1.5t5.5 -5t0.5 -8.5t-7 -8q-20 -13 -31.5 -16t-25.5 -8q-17 -25 -41 -48.5
t-54.5 -40t-67 -23.5t-78.5 1zM119 240q19 -26 47.5 -48.5t61.5 -38t68.5 -21.5t68.5 3q14 22 21.5 46t10.5 48q2 35 -12 67.5t-39 59t-57.5 45t-67 25t-67.5 -0.5t-59 -32q-10 -16 -12 -36.5t2 -41.5t13 -40.5t21 -34.5zM346 109q-39 -7 -87.5 6.5t-91.5 44t-74.5 75.5
t-35.5 100q-21 -38 -26.5 -87.5t5 -95.5t37 -80.5t69.5 -43.5q58 -12 112.5 11.5t91.5 69.5z" />
    <glyph glyph-name="P" unicode="P" horiz-adv-x="443" 
d="M429 330q6 -39 -15.5 -71t-60 -55.5t-87.5 -38t-97 -18.5q-1 -67 -7 -106.5t-26 -50.5q-14 -8 -30.5 9t-32 43t-28 54t-17.5 43q-15 45 -22 93t3 90t39.5 74.5t86.5 46.5q33 8 81.5 5t94 -17.5t79.5 -39.5t39 -61zM404 320q-3 27 -28 50t-61.5 37t-80.5 19t-86 -4
q6 -18 9.5 -48t6 -64.5t4 -71t1.5 -67.5q20 1 45.5 6t53 14t53 21.5t45 29t30.5 36t8 42.5zM145 174q0 32 -1 68t-3.5 69.5t-6.5 61t-10 43.5q-47 -14 -69 -43t-27.5 -66.5t2 -79t19.5 -80.5q3 -8 12 -27.5t20.5 -41t24 -40.5t23.5 -26q6 7 9.5 23t4.5 36t1.5 41t0.5 38
q-9 1 -17 1t-13 3q-7 8 -0.5 15.5t15.5 5.5q3 -2 6.5 -1t8.5 0z" />
    <glyph glyph-name="Q" unicode="Q" horiz-adv-x="387" 
d="M43 343q29 28 70.5 44t86.5 18q20 37 39.5 50.5t37 9t33 -23t27 -44t18.5 -54.5t8 -55q1 -41 -7.5 -82t-29.5 -75t-55 -57t-82 -28q3 -27 7.5 -53.5t9.5 -52.5q10 -1 33 -1.5t50 -3t55 -8t50 -16t34 -27.5t7 -41q-6 -30 -28.5 -54t-51 -34.5t-59 -3.5t-54.5 39
q-20 28 -33 60t-22 67q-30 1 -61.5 5t-60.5 11.5t-52 19.5t-36 30q-5 8 -7 15t-7 16q-2 11 5.5 14t15.5 -7q3 -7 5 -13.5t6 -11.5q12 -15 32.5 -24.5t45.5 -15.5t53 -9.5t55 -4.5q-5 25 -9 51t-7 54q-43 8 -73.5 28.5t-50 47t-29 57.5t-8.5 61t11 57t28 45zM273 397
q7 -4 7 -11t-3.5 -12t-9.5 -6t-11 8q-8 3 -17.5 4t-19.5 1q-23 -72 -29.5 -153t-1.5 -159q36 0 64.5 18.5t48.5 49t30 69.5t8 79q-1 21 -5.5 45.5t-12 47t-18 39.5t-22.5 23.5t-25.5 -1t-27.5 -34.5q13 -1 23.5 -2.5t21.5 -5.5zM163 70q-5 79 2 156.5t28 153.5
q-37 -5 -71.5 -17t-59.5 -37q-32 -32 -35.5 -73.5t13.5 -80t49.5 -67t73.5 -35.5zM390 -113q-37 19 -84.5 22.5t-93.5 6.5q8 -32 20.5 -60t29.5 -51q4 -6 15 -14t27 -12t35 -0.5t40 20.5q9 7 17 19t11.5 24.5t0 24.5t-17.5 20z" />
    <glyph glyph-name="R" unicode="R" horiz-adv-x="445" 
d="M154 141q0 -41 -1.5 -75t-5.5 -45q-2 -8 -10.5 -12.5t-15.5 3.5q-29 38 -54 84t-42 90q-32 81 -12 138.5t112 84.5v36q1 6 5 9t8.5 2.5t8 -4t3.5 -9.5v-28q32 6 65.5 7t63 -4t53 -16t35.5 -28q18 -26 8.5 -54.5t-34 -56t-58.5 -52t-67 -41.5q33 1 58.5 -5t46.5 -21
t39 -39.5t37 -59.5q23 -44 41.5 -67.5t41 -30t54.5 2.5t83 31q12 0 14.5 -9t-7.5 -15q-47 -19 -82 -29.5t-63.5 -4.5t-53 33t-51.5 83q-15 31 -34.5 55t-46 38t-60.5 17t-79 -8zM150 390q2 -56 4 -111.5t0 -110.5h2q12 3 33.5 13.5t45.5 26t48 34t41.5 38.5t25 40t-0.5 38
q-8 15 -32 23.5t-54.5 11.5t-61 1.5t-51.5 -4.5zM130 162q2 55 -0.5 111t-4.5 111q-44 -13 -65.5 -35t-27 -50.5t2 -61.5t22 -66.5t33 -65.5t35.5 -60l4 85h-13.5t-10.5 7q0 10 8 15.5t17 9.5z" />
    <glyph glyph-name="S" unicode="S" horiz-adv-x="426" 
d="M285 431q2 -6 0.5 -10.5t-5.5 -7t-8.5 -2t-8.5 5.5q-8 11 -22.5 14.5t-31 0.5t-32 -11.5t-23 -22.5t-5.5 -31.5t21 -38.5q19 -22 47.5 -43t56 -39.5t50 -32.5t29.5 -21q7 1 16 2t17 3q13 2 15.5 -8t-10.5 -15q-4 -2 -10 -2.5t-8 -0.5q18 -24 23 -50.5t-10 -57.5
q-15 -30 -56 -46t-92 -19.5t-103 4.5t-87 26q-17 9 -29 22t-15 27.5t6.5 29.5t35.5 27q31 15 65 23.5t69 13.5t70.5 8t69.5 8q-10 7 -30.5 19.5t-45 28.5t-49.5 35t-44 40q-23 25 -26.5 49.5t6 44.5t29 34t42 19t45 -0.5t38.5 -25.5zM364 72q8 14 8.5 27t-3 25t-11 22
t-15.5 19q-33 -5 -70.5 -8t-74 -7.5t-71.5 -12t-63 -20.5q-35 -17 -32.5 -35t37.5 -35q31 -15 75.5 -21.5t89 -3.5t80.5 15t50 35z" />
    <glyph glyph-name="T" unicode="T" horiz-adv-x="468" 
d="M444 417q11 0 13.5 -8.5t-6.5 -15.5q-39 -10 -75 -7.5t-71 10.5q-9 -38 -6 -76.5t9 -77t9 -75.5t-6 -73q-10 -35 -31 -56t-48.5 -29t-58.5 -5t-61 16t-55.5 34t-42.5 49q-5 11 3.5 16.5t17.5 -4.5q19 -35 57 -58.5t77.5 -28.5t72.5 11.5t44 61.5q9 34 6.5 69.5t-8 71
t-10 71t-0.5 69.5q-24 -10 -53.5 -23t-59 -24t-56.5 -16t-46 2q-32 11 -37 30.5t6.5 39t33 35t44.5 18.5q43 7 85 -0.5t84 -17.5t84 -15t85 6zM136 425q-15 -1 -34.5 -8t-34 -17.5t-21 -22.5t4.5 -24q7 -8 19.5 -10.5t26.5 -1t28.5 5.5t26.5 9q30 11 59.5 24.5t52.5 23.5
q-13 3 -29 7t-33.5 7.5t-34 5.5t-31.5 1z" />
    <glyph glyph-name="U" unicode="U" horiz-adv-x="420" 
d="M28 414q-5 -11 -15.5 -9t-8.5 15q3 11 11 16t18 5t20.5 -4.5t17.5 -13.5q11 -14 15.5 -38.5t5 -56t-1 -66.5t-2.5 -68t0 -62.5t7 -49.5q7 -24 22.5 -33t34.5 -7.5t40 10.5t41 22.5t36.5 28t25.5 26.5q-6 48 -11 94t-7 94q0 17 -1 38t-0.5 41.5t3.5 38t9 28.5q7 10 17 6
q18 -8 32 -27t23 -42.5t13 -48.5t3 -43q-1 -51 -12 -95t-43 -89q5 -33 8.5 -55t6.5 -38.5t6 -30t8 -28.5q2 -6 -0.5 -10t-6.5 -5.5t-8.5 0t-7.5 7.5q-10 35 -15.5 65t-12.5 69q-15 -18 -34 -32.5t-39.5 -25.5t-41 -17t-38.5 -6q-43 0 -61.5 29t-22.5 72.5t0 95t5.5 96
t-5.5 75t-33 32.5q0 -1 -0.5 -1.5t-0.5 -1.5zM306 441q-6 -23 -7.5 -55t0.5 -70q2 -36 7 -76l10 -80q19 35 28.5 75t7.5 77q0 12 -3 30.5t-9 37t-14.5 35.5t-19.5 26z" />
    <glyph glyph-name="V" unicode="V" horiz-adv-x="558" 
d="M409 -8q-29 -1 -49 16t-34 43.5t-23.5 59t-16.5 61.5q-30 -5 -72 -3t-82.5 14t-74 34t-47.5 56q-12 30 -3 59.5t30 55t49.5 44t55.5 25.5q40 9 66 -5t43 -42t26 -64t15 -70q8 -51 18 -99.5t23.5 -85.5t31.5 -57.5t44 -15.5q16 3 28.5 32t20.5 72.5t13.5 98t9 109t5.5 104
t4 83.5q2 13 11.5 11.5t8.5 -14.5q-1 -16 -1.5 -61t-3.5 -102.5t-9 -120.5t-17 -115.5t-28 -87t-42 -35.5zM30 321q-3 -29 9 -50t33 -36.5t49 -24.5t57 -13.5t56 -5t48 3.5q-9 45 -16 85.5t-16 72t-22 52t-33 27.5q-23 8 -51 0.5t-52.5 -24t-42 -40t-19.5 -47.5z" />
    <glyph glyph-name="W" unicode="W" horiz-adv-x="661" 
d="M294 2q-16 -4 -29.5 16t-24 53t-16.5 72.5t-7 74.5q-12 -5 -29 -7t-35.5 -1.5t-38 4.5t-37.5 10q-37 14 -53.5 32.5t-18.5 39t8.5 42t29 41.5t43 36.5t49.5 27.5q37 16 58 11.5t31.5 -23t12.5 -47.5t2 -61q0 -41 1.5 -85.5t6.5 -85.5t14.5 -73.5t27.5 -47.5q13 55 20 106
t23 105q10 32 21.5 48.5t22.5 20.5q13 3 24 -6.5t20.5 -27t17 -39.5t13.5 -44t11 -41t8 -30l9 -30t14 -39.5t19 -33.5t25 -13q22 12 30 49t9.5 87.5t-1 109t-2.5 114.5t6.5 104t25.5 77q7 10 16 7.5t9 -14.5q-16 -20 -23.5 -53.5t-10 -74t-1 -86.5t2.5 -91.5t1 -88t-5 -76.5
t-16 -56t-32 -28q-24 -5 -40 7t-27 31.5t-18.5 43.5t-13.5 44q-3 8 -9 35.5t-15 57.5t-19.5 53.5t-21.5 25.5q-15 -15 -24 -40.5t-15 -56t-10 -62.5t-9 -58.5t-12 -44.5t-18 -21zM131 417q-26 -12 -52.5 -34t-39 -46.5t-4 -48.5t52.5 -42q16 -6 34 -9.5t35.5 -4.5t32.5 1.5
t26 8.5q0 22 0.5 40t0.5 35q1 29 -1 54t-11 40t-26.5 18t-47.5 -12z" />
    <glyph glyph-name="X" unicode="X" horiz-adv-x="537" 
d="M403 402q4 11 14.5 8.5t9.5 -14.5q-14 -61 -45 -131.5t-72 -139.5q13 -25 28 -48q26 -43 52 -53.5t50.5 1.5t49 42.5t47.5 71.5q7 13 13.5 28t10.5 27q6 13 14.5 10t8.5 -16q-6 -20 -18 -46t-29 -53q-18 -27 -41 -51t-49 -35.5t-54.5 -4.5t-56.5 42q-11 13 -20.5 28
t-20.5 32q-34 -55 -70.5 -103t-71.5 -86q-4 -5 -9 -5t-8 2.5t-4 7t3 9.5q35 38 72 90t72 111q-17 29 -32.5 60t-29 58.5t-24.5 51t-17 37.5q-14 30 -29 47.5t-32 19.5q-21 3 -37 -11t-27.5 -35t-18 -44t-7.5 -37q-5 -11 -12 -10t-9 12q1 21 8 48t21.5 50t35.5 37.5t50 10.5
q48 -6 82 -81q6 -13 15.5 -33.5t22.5 -46t27 -53.5t29 -55q37 66 65.5 131t42.5 119z" />
    <glyph glyph-name="Y" unicode="Y" horiz-adv-x="515" 
d="M258 42q38 16 67 52t50 78l19 45q-2 9 -5 29t-6 44.5t-5 51t0 48.5t8.5 37.5t19.5 17.5q2 0 3.5 0.5t3.5 0.5q17 3 28 -8q0 -1 1 -1l7 -8l-1 -1q9 -15 10.5 -35.5t-1 -40.5t-6.5 -36.5t-6 -24.5l-13 -40q-5 -19 -12 -34q-2 -2 -2 -4q8 -42 13.5 -71t9 -50t6 -37.5
t4.5 -33.5l39 8q11 0 13.5 -9t-7.5 -15l-41 -9l2 -33v-34v-16q-1 -5 -1 -8.5v-8.5l-4 -32l-3 -15l-2 -8q-2 -5 -3 -11t-3 -11q-4 -12 -9 -23.5t-12 -21.5q-2 -4 -8 -12l-9 -10l-9 -10l-17 -12l-12 -7q-31 -16 -72 -14t-79.5 17t-68 40t-37.5 55.5t11.5 63.5t78.5 64
q53 28 113.5 40.5t120.5 26.5q-5 44 -13.5 84.5t-15.5 75.5q0 -1 -0.5 -1t-0.5 -1l-1 2l-16 -35q-14 -23 -30 -45t-35 -39q-6 -5 -16.5 -13t-23.5 -16h1q-12 -8 -28 -14q-4 0 -6.5 0.5t-6.5 4.5q-23 25 -34 65.5t-18 85.5q-31 -13 -64.5 -4.5t-60.5 31t-44 55.5t-15 68
q2 39 15 65.5t32 40.5t41.5 14.5t43 -12.5t36 -40.5t21.5 -69.5q5 -37 11 -81t13.5 -84.5t16.5 -71.5t18 -41q2 0 3 0.5t3 0.5v1zM356 -254q27 14 44 40t26 59t10.5 71t-2.5 76q-48 -8 -106.5 -21.5t-109.5 -36.5q-45 -21 -64.5 -44t-20.5 -45.5t13 -43t37.5 -36t53 -24.5
t58.5 -9h5h3q28 1 53 14zM170 317q-5 47 -27.5 72t-48 26.5t-46 -22t-21.5 -73.5q-1 -27 13 -54.5t36.5 -47t51 -27.5t57.5 4zM402 367v-32l2 -28v-7q1 -3 1 -9l3 -23q1 -2 1 -6q0 -1 0.5 -1t0.5 -1v1q1 1 1 2l3 9q2 4 2 7q1 1 1 3l1 2l2 9l2 4q4 13 7.5 29.5t5.5 32.5t1 30
t-7 22q-2 4 -4 5q-3 3 -11 5q-1 0 -1.5 -0.5t-1.5 -0.5l-3 -4q-2 -4 -2 -7q-1 -3 -1.5 -5.5t-0.5 -5.5q0 -2 -0.5 -2t-0.5 -2q-1 -5 -1 -10v-9v-8z" />
    <glyph glyph-name="Z" unicode="Z" horiz-adv-x="340" 
d="M13 406q-13 6 -10.5 15t16.5 7q16 -2 31 -9t31 -22q32 37 65 46.5t62 -1t51.5 -38t32.5 -63.5q7 -29 8 -61.5t-6.5 -66t-23.5 -66t-42 -60.5q19 -12 36.5 -30.5t29 -42t15 -52t-4.5 -61.5q43 -5 83.5 -12.5t79.5 -10.5t78.5 2.5t80.5 26.5q12 0 14.5 -9t-6.5 -15
q-46 -23 -89 -28t-84.5 -1.5t-83 12t-85.5 13.5q-18 -27 -46 -48.5t-58 -30.5q-28 -8 -51.5 -1t-33 22t-1.5 34t43 35q26 14 60 16.5t71 -1.5q10 22 9.5 44.5t-9.5 44.5t-26 41t-38 34q-19 -20 -47.5 -35.5t-57 -21.5t-51 1.5t-29.5 33.5q-5 17 3 30t24 21.5t37.5 13t43 5
t41.5 -3.5t33 -12q22 22 36 49t21.5 56t8 57.5t-3.5 54.5q-6 36 -24 63t-42 37.5t-52 1.5t-55 -45q24 -32 37 -74.5t12 -78.5q-1 -20 -8 -37.5t-19.5 -28t-29 -11.5t-36.5 13q-22 15 -29 41t-3.5 56.5t15.5 62t29 57.5q-11 10 -23 16.5t-30 14.5zM68 174q11 -8 21.5 -6.5
t18 9t12 18.5t4.5 23q2 34 -9.5 71.5t-31.5 65.5q-11 -15 -21.5 -39.5t-15.5 -51t-1 -51t23 -39.5zM51 51q5 -18 25 -18.5t43 8t43.5 21t28.5 20.5q-12 8 -37.5 10.5t-50 -1.5t-41 -14t-11.5 -26zM160 -131q-21 -8 -28.5 -18.5t-4 -18.5t16.5 -11.5t33 3.5q21 8 44 23t39 35
q-25 0 -51.5 -2t-48.5 -11z" />
    <glyph glyph-name="bracketleft" unicode="[" horiz-adv-x="168" 
d="M151 504q6 0 9.5 -3.5t4 -8t-2.5 -8t-9 -4.5q-12 -2 -27.5 -2h-30t-26 -0.5t-15.5 -2.5q-2 -36 -3.5 -72t-2 -76.5t0 -86t2.5 -100.5q2 -34 3.5 -72.5t13.5 -71.5q4 -6 16.5 -7t29.5 1t37 6.5t40 9.5q11 0 13.5 -9t-7.5 -15q-57 -17 -91 -19.5t-42 2.5q-9 5 -15.5 16.5
t-10.5 32t-7 51t-4 74.5q-1 15 -1.5 44.5t-0.5 64.5t-0.5 72.5t0 69.5t1.5 54t2 28q4 17 10.5 23.5t20.5 8.5q6 1 17.5 1t24 -0.5t26 -1t24.5 0.5z" />
    <glyph glyph-name="backslash" unicode="\" horiz-adv-x="164" 
d="M23 474q12 -47 30.5 -114t38.5 -138t39.5 -136.5t33.5 -108.5q1 -13 -8.5 -15t-14.5 9q-40 118 -75.5 245.5t-67.5 253.5q2 13 11 15.5t13 -11.5z" />
    <glyph glyph-name="bracketright" unicode="]" horiz-adv-x="154" 
d="M14 507q19 2 44.5 2.5t35.5 -0.5q14 -1 21.5 -6t10.5 -17t4 -31.5t1 -49.5q-2 -102 -3 -167t-2 -104t-1.5 -58t-1.5 -28q-3 -35 -6 -56.5t-12 -30.5q-14 -12 -45 -9t-85 6q-6 1 -9 4.5t-2.5 8t4 8t9.5 3.5q13 0 27 -2.5t28 -4.5t27.5 -1.5t26.5 5.5q4 5 7.5 27.5
t5.5 56.5t3.5 76.5t2 87.5t1 90.5t0.5 85.5q0 26 -0.5 42t-1.5 25t-4.5 12.5t-9.5 4.5q-7 1 -31 -1t-43 -4q-12 2 -12 12t10 13z" />
    <glyph glyph-name="asciicircum" unicode="^" horiz-adv-x="174" 
d="M36 294q-5 -10 -13.5 -9t-10.5 12q1 7 5.5 22.5t11 34t14 37t15.5 31.5q10 17 18 16.5t16 -11.5q6 -9 15 -25t18 -33l18 -34t17 -27q7 -11 -1 -18t-17 2q-5 5 -15 23t-20.5 38t-19.5 37t-12 20q-4 -9 -10 -25t-11.5 -33.5t-10.5 -33t-7 -24.5z" />
    <glyph glyph-name="underscore" unicode="_" horiz-adv-x="195" 
d="M25 6q-6 1 -8.5 4.5t-2.5 8t3.5 8t9.5 3.5h40.5t31.5 0.5t31.5 0.5h40.5q6 0 10 -3.5t4.5 -7.5t-2.5 -8t-9 -5h-41t-32.5 -0.5t-33 -0.5h-42.5z" />
    <glyph glyph-name="grave" unicode="`" horiz-adv-x="107" 
d="M17 361q-5 4 -5 9t3 8.5t8 4t10 -3.5q15 -16 29 -32.5t30 -31.5q4 -5 3.5 -10t-4 -8t-8.5 -3t-9 5q-13 13 -26.5 27.5t-30.5 34.5z" />
    <glyph glyph-name="a" unicode="a" horiz-adv-x="293" 
d="M212 48q15 2 26.5 11t21 21.5t17.5 28t16 30.5q8 14 14 28.5t10 26.5q7 13 15 10t8 -16q-5 -20 -17.5 -45t-29.5 -53q-18 -28 -36.5 -47t-41.5 -19q-35 0 -54.5 34.5t-29.5 83.5q-13 -37 -28 -64q-13 -23 -30 -40t-34 -11q-13 4 -21.5 22t-10.5 43t3 54.5t19 58.5
q11 23 30.5 38t40 17.5t36.5 -10t21 -44.5q0 -4 -1.5 -6.5t-3.5 -4.5q2 -21 7.5 -47t13.5 -49t18 -38t21 -13zM80 92q15 31 25 64t20 71q-6 8 -14.5 9.5t-18 -1.5t-18.5 -9.5t-15 -15.5q-8 -12 -14 -33.5t-9 -45t-2.5 -44.5t5.5 -30t15 -2.5t26 37.5z" />
    <glyph glyph-name="b" unicode="b" horiz-adv-x="246" 
d="M31 27q-3 2 -6 5t-6 7q-3 3 -5 10.5t-2 15t2.5 13t9.5 6.5q-4 31 -5.5 64t-1.5 68v67t3.5 87.5t11.5 86.5t23 64q12 18 25.5 22.5t25.5 -0.5t21.5 -17t12.5 -28q6 -35 -2.5 -77t-24 -85.5t-35.5 -86.5t-36 -79q0 -15 1 -29t3 -28q6 19 16 39t23.5 36t31.5 25.5t39 7.5
q29 -3 42.5 -19.5t15 -38.5t-8 -45.5t-25.5 -40.5q-22 -22 -53.5 -36.5t-69.5 -22.5l2 -12q0 -9 -3.5 -13.5t-8 -4.5t-8.5 3.5t-4 10.5zM100 519q-13 8 -22.5 -7t-16.5 -38t-10.5 -46.5t-4.5 -30.5q-5 -48 -5 -93.5t-1 -84.5q27 67 51.5 125t26.5 111q2 25 -3.5 41.5
t-14.5 22.5zM157 200q-23 3 -40 -12t-29 -38.5t-19 -51.5t-11 -52q29 0 57 13.5t49 36.5q13 14 20 30.5t7 31t-8 26t-26 16.5z" />
    <glyph glyph-name="c" unicode="c" horiz-adv-x="218" 
d="M265 188q-9 -28 -26.5 -62.5t-41.5 -64.5t-54.5 -49.5t-65.5 -18.5q-30 1 -51 26.5t-21 86.5q0 15 4 36.5t12 43t20 38t29 20.5q18 5 33 -11.5t19 -49.5q0 -6 -3.5 -9.5t-8 -3.5t-8 3t-4.5 9q-5 44 -24 34q-12 -6 -20.5 -19t-13.5 -28.5t-7 -31.5t-2 -28
q2 -44 14.5 -65.5t32.5 -24.5q28 -4 54.5 14.5t48 46.5t37.5 59.5t24 54.5q7 13 17 9.5t6 -15.5z" />
    <glyph glyph-name="d" unicode="d" horiz-adv-x="309" 
d="M136 117q-2 -8 -6 -27t-11 -39t-18.5 -35t-28.5 -15q-24 0 -38.5 16t-21.5 40.5t-6.5 53.5t7.5 55.5t20.5 46t31.5 25.5q11 3 28.5 -3t34.5 -18q5 60 9 118t16 96q1 4 5 7.5t8 3.5t7.5 -3t3.5 -10q0 -32 -2.5 -67t-5 -71.5t-3 -73t2.5 -71.5v-5q0 -2 0.5 -2.5t0.5 -1.5
q2 -17 5.5 -35t8 -33.5t11 -26t14.5 -13.5q11 -4 26.5 10t30.5 33.5t27 39t16 27.5q6 14 13 28.5t11 26.5q6 13 14.5 10t8.5 -16q-5 -20 -17.5 -46t-29.5 -53q-6 -9 -18.5 -25.5t-28 -32t-32.5 -25t-32 -5.5q-12 3 -22 22.5t-17.5 44t-11.5 49.5t-5 40q-1 -20 -6 -40zM70 27
q13 1 22 16t15 38t10 51.5t7 55.5q-5 5 -10 9l-10 8q-20 12 -34.5 3.5t-23.5 -29t-12 -47t0 -50.5t12 -40t24 -15z" />
    <glyph glyph-name="e" unicode="e" horiz-adv-x="217" 
d="M217 89q-11 -17 -27.5 -34t-37 -30.5t-43.5 -20t-47 -0.5q-17 4 -28 20.5t-16.5 40.5t-6 52t4.5 54q6 35 18.5 54.5t27 26t28 2t22 -18t9 -34.5t-10.5 -47q-11 -24 -30.5 -46.5t-37.5 -33.5q4 -17 11 -28.5t18 -15.5q21 -7 43.5 2.5t42.5 27.5t35.5 39.5t24.5 39.5
q7 14 13.5 28.5t10.5 26.5q7 13 15 10t8 -16q-5 -20 -17.5 -46t-29.5 -53zM88 164q10 22 7 41t-12 24.5t-21 -7.5t-19 -53q-3 -17 -4.5 -34t0.5 -34q12 10 26 26.5t23 36.5z" />
    <glyph glyph-name="f" unicode="f" horiz-adv-x="207" 
d="M8 43q-10 5 -9 14t12 11q1 0 1.5 -0.5t2.5 -0.5q0 1 1 1l-3 98q-1 24 -1.5 62t1 80.5t6 85t13 75.5t22.5 52.5t35 16.5q30 -5 41.5 -29.5t10 -60t-13 -78t-27.5 -82.5t-33 -73.5t-30 -51.5v-45.5t2 -48.5h13.5t12.5 -1q56 5 100.5 33.5t64.5 91.5q6 11 13.5 9t8.5 -14
q-18 -63 -55 -96t-88 -44l10 -8t10 -9q18 -18 29 -48.5t15 -66.5t1.5 -72.5t-11 -67t-24 -50t-36.5 -21.5t-35.5 19t-24 54t-14.5 74t-8 80l-5 110q-2 0 -4 0.5t-4 0.5zM100 -271q19 6 31.5 29.5t17.5 55.5t3 68.5t-11.5 69.5t-27 58t-42.5 33q-8 -1 -16 -1h-16q0 -24 1 -56
t3.5 -66t7 -67.5t11 -60.5t16 -44.5t22.5 -18.5zM92 513q-13 3 -22 -15t-15.5 -47.5t-10 -66.5t-5 -71.5t-1.5 -61.5t1 -38q5 9 16.5 33.5t24 56t23 66.5t15 65.5t-1 52t-24.5 26.5z" />
    <glyph glyph-name="g" unicode="g" horiz-adv-x="273" 
d="M127 263q2 12 11.5 11.5t12.5 -10.5q5 -59 15 -109t27 -110q19 17 34 32t27 31.5t22 37t21 48.5q6 10 15 8t9 -14q-14 -33 -26 -56t-26 -41.5t-31 -34.5t-39 -35q7 -25 13.5 -47.5t12 -44.5t10 -45t6.5 -49q4 -55 -12 -89.5t-44 -51.5t-63 -19t-67 9q-56 18 -75.5 45
t-15 58.5t28.5 65.5t55.5 66t65.5 61t58 49q-8 28 -15 60t-15 64q-3 -13 -12.5 -31t-21.5 -33.5t-26.5 -25.5t-27.5 -8q-13 3 -22.5 14.5t-14.5 28.5t-5 37.5t6 41.5q7 26 19.5 42t28 23t31.5 4.5t31 -12.5zM58 -292q78 -23 119 10.5t39 111.5q-2 45 -12.5 88t-23.5 87
q-25 -20 -55 -45.5t-57 -53t-48 -55t-27 -51.5q-9 -35 11 -58.5t54 -33.5zM58 84q11 -4 22.5 8.5t22 31.5t19 40t11.5 33q-10 11 -22 19t-24.5 7.5t-24.5 -12.5t-21 -40q-4 -10 -5 -23.5t1.5 -26.5t7.5 -23.5t13 -13.5z" />
    <glyph glyph-name="h" unicode="h" horiz-adv-x="328" 
d="M201 24q-8 15 -15.5 44.5t-14 59.5t-13 52.5t-10.5 22.5q-5 0 -18.5 -22.5t-28.5 -53t-28 -61.5t-16 -48q-1 -6 -4.5 -9.5t-8 -3t-8.5 4t-5 11.5q-5 36 -11 85.5t-9 103.5t-2.5 108.5t8 100t23 78.5t41.5 44q23 10 43.5 -8t23.5 -53q4 -31 -7 -72.5t-28 -85t-37.5 -84.5
t-35.5 -70q1 -17 4 -43.5t5 -54.5q30 79 55.5 121.5t46.5 44.5q15 1 24.5 -24.5t17 -60.5t15 -69.5t17.5 -50.5q2 -2 3 -2q10 -5 26 9t31 33.5t27 39.5t16 28q6 14 13 28.5t11 26.5q7 13 15 10t8 -16q-5 -20 -17.5 -46t-29.5 -53q-6 -9 -18 -25t-27 -31t-32 -24t-32 -5
q-3 0 -6 3q-1 0 -4.5 5.5t-7.5 11.5zM37 216q15 31 34.5 72.5t34 82.5t19 76t-9.5 55q-12 17 -30 8t-32 -48q-12 -38 -15.5 -77t-2.5 -77z" />
    <glyph glyph-name="i" unicode="i" horiz-adv-x="170" 
d="M70 29q10 -5 26 9t31 33.5t27 39.5t16 28q6 14 13 28.5t11 26.5q7 13 15 10t8 -16q-5 -20 -17.5 -46t-29.5 -53q-6 -9 -18.5 -25.5t-28 -32t-32.5 -25t-32 -5.5q-11 3 -17.5 18.5t-10.5 36.5t-5.5 44t-1.5 41q-1 26 -0.5 52.5t0.5 44.5q1 6 5 9t8.5 2.5t8 -4t3.5 -9.5
q0 -8 -0.5 -28.5t-0.5 -43.5q1 -17 2.5 -39.5t4 -43t6 -35.5t9.5 -17zM53 315q-3 -12 -14.5 -12t-13.5 13v1q1 7 5.5 10t9.5 2.5t9 -4t4 -10.5z" />
    <glyph glyph-name="j" unicode="j" horiz-adv-x="186" 
d="M46 301q-1 -6 -5 -8.5t-8.5 -2.5t-8.5 3.5t-5 9.5v1q1 7 5 10t9 2.5t9 -4.5t4 -11zM233 188q-8 -28 -26.5 -60.5t-41.5 -65t-47.5 -62t-44.5 -51.5q4 -29 10.5 -69.5t11 -79.5t4.5 -70t-8 -41q-20 -23 -51.5 -19t-58 26t-37.5 59t11 80q14 26 38 55.5t53 68.5
q-5 27 -9.5 63.5t-8.5 75t-6 74.5t-1 62q0 13 10 13t14 -12q0 -22 2.5 -53.5t5.5 -66.5t7 -70.5t8 -65.5q17 21 38 47t41 54.5t37 58t26 55.5q6 13 14.5 10t8.5 -16zM69 -291q5 10 5 33t-3 53t-8.5 64t-10.5 67q-20 -24 -39.5 -48t-33.5 -51q-19 -36 -10.5 -65.5t27.5 -47
t41.5 -20.5t31.5 15z" />
    <glyph glyph-name="k" unicode="k" horiz-adv-x="289" 
d="M200 283q4 6 9 7t9 -0.5t5.5 -5.5t-1.5 -10q-22 -41 -55.5 -73t-65.5 -66q22 17 47 22.5t51 -9.5q18 -10 32 -31.5t25.5 -48.5t23 -56t24 -52.5t28 -38.5t36.5 -15q9 0 18 4t18 7q12 0 14 -9t-8 -15q-10 -3 -20.5 -7.5t-21.5 -4.5q-24 0 -42 14.5t-33 37t-28 50t-25 54.5
t-24.5 49.5t-26.5 35.5q-14 12 -30.5 9.5t-32.5 -12.5t-30 -23.5t-22 -23.5q2 -20 3 -36.5t1 -25.5q-1 -12 -10 -15t-11 11l-6 43q-3 -2 -5.5 -3.5t-4.5 -2.5q-3 -1 -4 -2q-7 -1 -11.5 3.5t-3.5 12.5q10 25 21 43l-16 117q-6 39 -12.5 88t-8 98.5t5 94t25.5 74.5
q8 12 22 14.5t28 -2t25.5 -15t15.5 -23.5q9 -27 6 -67t-14.5 -85.5t-29 -94.5t-37.5 -95q1 -10 4 -30t8 -45q16 20 35 38t37 36.5t34.5 38t28.5 41.5zM57 556q-12 -8 -18 -43t-6.5 -81.5t3 -96.5t11.5 -88q14 38 25.5 75t21.5 72q3 12 6.5 30.5t6 39.5t2.5 40.5t-5 33.5
q-2 4 -7 9.5t-11.5 8.5t-14.5 3.5t-14 -3.5z" />
    <glyph glyph-name="l" unicode="l" horiz-adv-x="188" 
d="M68 52q0 -3 1 -4q2 -5 5.5 -9.5t5.5 -7.5q3 -2 8 -2q10 -5 26 9t31 33.5t27 39.5t16 28q7 14 13.5 28.5t10.5 26.5q7 13 15 10t8 -16q-5 -20 -17.5 -46t-29.5 -53q-6 -9 -18.5 -25.5t-28 -32t-32.5 -25t-32 -5.5q-6 2 -14 10.5t-12 17.5q-14 23 -22.5 60.5t-13 76.5
t-6 72.5t-1.5 50.5q0 45 3 86.5t11.5 75t22.5 57t36 32.5q23 10 43.5 -7.5t23.5 -52.5q4 -30 -6.5 -71.5t-28 -84.5t-37.5 -83.5t-35 -69.5q3 -38 10 -69t16 -51zM37 216q15 31 34.5 72.5t34 82.5t19 76t-9.5 55q-12 17 -30 8t-32 -48q-12 -38 -15.5 -77t-2.5 -77z" />
    <glyph glyph-name="m" unicode="m" horiz-adv-x="470" 
d="M462 77q-29 -37 -55 -44.5t-47 11t-35.5 60t-20.5 103.5q-8 -24 -14.5 -49.5t-14 -51t-17 -49.5t-24.5 -46q-5 -6 -13 -6q-20 3 -32 20t-20 42t-13.5 53.5t-12.5 54.5q0 3 -2 7q-6 21 -14 38q-11 -4 -22 -31t-21 -60t-18.5 -64t-12.5 -41q-5 -8 -12 -8.5t-12 7.5
q-5 29 -6 56.5t0 55t1.5 55.5t-1.5 58q1 6 4.5 9t8 2.5t8 -4t3.5 -9.5q0 -36 0.5 -72t1.5 -71l6 21q7 20 13 36t14 34q17 38 30.5 49.5t23.5 6.5q7 -4 12 -13t10 -21q5 -14 8 -29t6 -28q2 -9 6.5 -29t10.5 -41t14 -38t16 -20q14 27 21.5 54.5t14.5 54.5t15.5 54t23.5 53
q12 17 23 1q8 -19 13.5 -50.5t13 -62.5t18 -53.5t29.5 -22.5q14 0 28 10.5t25 24.5q9 14 16.5 26.5t9.5 18.5q7 14 14 28.5t10 26.5q7 13 15 10t8 -16q-5 -20 -17.5 -46t-29.5 -53z" />
    <glyph glyph-name="n" unicode="n" horiz-adv-x="340" 
d="M299 37q-33 -33 -57 -26q-14 3 -23 16.5t-15 33t-9.5 41t-7.5 40.5t-8 32.5t-11 16.5q-10 3 -20.5 -9t-21 -32t-20.5 -44t-17.5 -46t-12.5 -37t-6 -17q-4 -9 -13.5 -11t-14.5 9q-6 22 -10.5 53.5t-6.5 64.5t-2 63t2 51q4 16 14 12.5t12 -13.5q-3 -43 -2.5 -89t8.5 -91
q2 8 8 24t15 35.5t20 39.5t23.5 36t26 25t26.5 6q10 -2 17 -16t12.5 -34t9 -43t8 -42.5t10 -32.5t14.5 -14q8 -2 17 3.5t19 15.5q19 21 35 46t21 35q6 14 13 28.5t11 26.5q6 13 14.5 10t8.5 -16q-5 -20 -17.5 -46t-29.5 -53q-5 -8 -15.5 -23.5t-24.5 -28.5z" />
    <glyph glyph-name="o" unicode="o" horiz-adv-x="232" 
d="M71 256q11 0 13 -10q23 3 45 -11t34 -34q20 -35 20 -77q26 8 43.5 26t29.5 44q6 10 14.5 8t8.5 -14q-11 -31 -36.5 -56.5t-60.5 -33.5q-5 -25 -17.5 -45.5t-35.5 -29.5q-29 -12 -51 -2.5t-37 32t-21 52.5t-3 60t16.5 55t37.5 36zM121 46q15 6 23.5 18.5t12.5 29.5
q-20 0 -38.5 8t-33 22t-23.5 33t-10 42q-9 -24 -9 -55t8.5 -56t26 -39t43.5 -3zM139 188q-12 17 -25 24t-33 7q-7 -19 -2.5 -36.5t16.5 -31t29 -21.5t35 -9q-2 39 -20 67z" />
    <glyph glyph-name="p" unicode="p" horiz-adv-x="259" 
d="M18 253q2 12 12 12t12 -11q3 -48 11 -94.5t16 -94.5q17 50 39.5 89t48.5 46q17 4 30 -8.5t21 -32t11.5 -41.5t2.5 -37q16 17 24.5 33.5t12.5 24.5q7 14 14 28.5t10 26.5q7 13 15 10t8 -16q-5 -20 -18 -45t-29 -54q-13 -23 -32.5 -38.5t-42.5 -23.5q-18 -8 -39 -9.5
t-41 0.5q-7 1 -12.5 2t-10.5 3q-1 -2 -2 -3.5t-1 -3.5q7 -38 12.5 -77t9.5 -78q1 -8 3 -28.5t2 -43.5t-4 -42.5t-14 -23.5q-15 -6 -25.5 8.5t-17.5 38.5t-10.5 50.5t-3.5 43.5q-1 20 5 61.5t19 87.5q-11 60 -21 118.5t-15 121.5zM103 84q-5 -9 -8.5 -18t-7.5 -19q5 -2 10 -3
l10 -2q48 -9 70 8t20 65q0 4 -3 14.5t-7.5 21.5t-11 19t-12.5 6q-11 -3 -20.5 -15t-17 -27t-13.5 -29.5t-9 -20.5zM76 -140q-2 23 -5 47t-7 47q-10 -58 -8 -112t22 -87q2 11 2 27.5t-1 33t-2 29t-1 15.5z" />
    <glyph glyph-name="q" unicode="q" horiz-adv-x="207" 
d="M168 242q2 -10 -5 -14.5t-13 0.5q-7 -70 -13 -144t-6 -148q24 -2 50 -9t48 -20t38 -33.5t20 -48.5q3 -20 -9 -48t-33 -50.5t-47 -32.5t-51 7q-16 15 -24.5 39t-12 53t-3.5 60.5v60.5q-51 8 -104 8.5t-103 3.5q-4 1 -21 3.5t-33 8.5t-22.5 16t10.5 24q10 8 17 1t-1 -18h-1
q6 -5 25 -8t40 -4.5t38.5 -2.5t19.5 -1q25 -2 61.5 -2.5t73.5 -4.5q2 53 5.5 95.5t5.5 81.5q-14 -26 -30 -33.5t-31 -3t-26 19t-15 34t1 41.5t22 42q14 17 38.5 32t50.5 20q1 11 1.5 21.5t0.5 21.5q0 6 3.5 10t8 5t9 -2t5.5 -12q0 -8 1 -19t-1 -29l7.5 -12t4.5 -9zM131 -89
q1 -26 0.5 -62t4 -67t17.5 -51t40 -14q5 -1 16.5 8.5t23.5 25t20.5 34.5t8.5 39q-1 10 -6 23.5t-19.5 26.5t-39.5 23.5t-66 13.5zM59 204q-19 -21 -21 -44.5t6 -40t22 -20t26 16.5q6 9 11 26.5t9.5 36t7.5 35.5t5 26q-16 -4 -34 -13t-32 -23z" />
    <glyph glyph-name="r" unicode="r" horiz-adv-x="291" 
d="M47 268q17 -17 32.5 -23t29 -9.5t24 -10t18.5 -22.5q3 -6 3 -27.5t0.5 -47t3.5 -49.5t13 -37q4 -5 12 -6q15 -4 31.5 7.5t31.5 29.5t27 36.5t18 29.5q6 14 13 28.5t11 26.5q6 13 14.5 10t8.5 -16q-6 -20 -18 -46t-29 -53q-7 -10 -17 -22.5t-21.5 -24.5t-25 -21t-26.5 -13
q-23 -7 -43 6t-28 55q-5 32 -3.5 63.5t-1.5 50.5q-2 13 -7.5 19t-14 10t-18.5 6.5t-21 7.5q-13 -39 -27 -59t-19 -27q-11 -8 -12 -2t2 16q20 43 22.5 65.5t2.5 32.5q-4 8 0 13.5t14 2.5z" />
    <glyph glyph-name="s" unicode="s" horiz-adv-x="242" 
d="M234 122q-6 -4 -9 -5q-3 -3 -7 -4q0 -1 -2 -1l-5 -3q-14 -8 -30 -15.5t-29 -12.5q12 -14 17.5 -26.5t2.5 -24.5q-3 -14 -19 -20.5t-36.5 -7t-41.5 4.5t-34.5 13t-15.5 18t16 21q10 7 28.5 14.5t39.5 16.5q-19 17 -39.5 34.5t-34.5 37.5q-16 21 -16.5 40t10 32t30 19.5
t45.5 3.5q13 -4 10.5 -15t-15.5 -9q-35 5 -48.5 -13t11.5 -49q14 -17 32.5 -34.5t38.5 -35.5q25 11 49.5 22t45.5 25q12 9 22 20.5t17 25.5q6 10 14 8t8 -14q-6 -18 -21 -35t-34 -31zM146 34q5 7 -3 17.5t-15 18.5q-56 -18 -73 -28q2 -5 14.5 -9t27.5 -6t29 -1t19 8h1z" />
    <glyph glyph-name="t" unicode="t" horiz-adv-x="172" 
d="M-25 301q-13 -2 -15 8.5t9 16.5l51 9q2 26 3.5 52t5.5 51q1 6 4.5 9t8 2.5t8 -4.5t3.5 -10q-1 -17 -2 -41.5t-1 -53.5q35 6 69.5 10.5t69.5 6.5q6 0 10 -3.5t4.5 -8t-2.5 -8t-9 -4.5q-53 -4 -83.5 -7.5t-58.5 -8.5q0 -45 1 -93.5t4.5 -90t10 -70t17.5 -33.5q6 1 18 13
t25.5 28t26 34.5t19.5 33.5q7 14 14 28.5t11 26.5q6 13 14 10t8 -16q-5 -20 -17.5 -46t-29.5 -53q-5 -8 -16.5 -23.5t-25.5 -30t-28.5 -24t-26.5 -6.5q-13 2 -21 20.5t-15 52.5q-11 47 -16 107.5t-3 125.5z" />
    <glyph glyph-name="u" unicode="u" 
d="M288 89q-7 -12 -20 -30.5t-29 -33t-34 -19t-36 12.5q-11 11 -18 26t-12 35l-12 -34q-2 -5 -5 -11.5t-7.5 -13t-10 -11.5t-11.5 -6q-16 -2 -27 8t-18.5 28t-12 40.5t-7 44.5t-3.5 41t-1 29q2 12 12 12t12 -10q0 -15 2 -39.5t5.5 -50t10 -48t17.5 -32.5q15 7 24.5 34.5
t15 59.5t8 62t4.5 43q0 1 0.5 1.5t0.5 1.5q1 6 5 8t8 1.5t7.5 -4.5t3.5 -10q0 -1 -0.5 -3t-0.5 -7.5t-0.5 -17t-1.5 -30.5q-1 -32 1.5 -63.5t16.5 -54.5q9 -15 20 -16t22.5 6.5t23 22t21 29.5t16.5 28.5t10 20.5q7 14 14 28.5t10 26.5q7 13 15 10t8 -16q-5 -20 -17.5 -46
t-29.5 -53z" />
    <glyph glyph-name="v" unicode="v" horiz-adv-x="230" 
d="M14 204q-7 8 -1 15.5t16 4.5q21 -20 35 -52t24.5 -64.5t20 -61t22.5 -41.5q14 57 27.5 116.5t33.5 119.5q13 35 31 64.5t41 56.5q9 7 17 2t1 -15q-28 -32 -45.5 -67t-30.5 -75q-13 -41 -20 -71t-11.5 -52.5t-8 -39.5t-8.5 -31q-13 -34 -25.5 -35.5t-24.5 17t-23.5 50.5
t-23 64.5t-23.5 59.5t-24 35z" />
    <glyph glyph-name="w" unicode="w" horiz-adv-x="340" 
d="M7 233q0 11 9.5 14.5t14.5 -6.5q12 -21 18.5 -47.5t10 -54t5.5 -54.5t5 -48q1 2 5.5 15.5t11 32.5t14 40.5t16.5 39.5t17.5 30.5t17.5 13.5q10 0 21.5 -12.5t22 -31.5t21 -42t20 -42.5t17.5 -33t14 -14.5q1 38 5.5 81.5t13.5 87.5t23.5 86.5t34.5 78.5q8 10 16.5 7.5
t7.5 -13.5q-19 -33 -35.5 -77.5t-24.5 -89.5q-7 -36 -9.5 -67.5t-4.5 -56t-4.5 -41.5t-8.5 -24q-2 -4 -6 -4.5t-9 -0.5q-14 5 -26 20.5t-22 35t-19.5 41t-17.5 40t-15 31t-14 13.5q-7 0 -16 -21t-18 -48t-18 -54.5t-15 -41.5t-15.5 -17t-17.5 8q-6 8 -8 35t-5.5 61.5
t-10.5 70t-22 59.5z" />
    <glyph glyph-name="x" unicode="x" horiz-adv-x="301" 
d="M301 89q-11 -19 -27 -37.5t-35 -29.5q-32 -20 -61 -10t-55 36q-35 -51 -80.5 -91t-100.5 -74q-10 -2 -13.5 6t6.5 15q55 35 97.5 73.5t74.5 87.5q-16 19 -30 40.5t-26.5 42.5t-23 39.5t-19.5 30.5q-5 12 4 17.5t17 -5.5q6 -8 15 -24t21 -35.5t26.5 -40.5t29.5 -40
q18 32 31.5 69t22.5 82q2 12 12 12t12 -9q-18 -98 -62 -173q23 -24 46 -34t43 5q20 17 40.5 43.5t34.5 53.5q7 14 14 28.5t11 26.5q6 13 14.5 10t8.5 -16q-6 -20 -18.5 -45t-29.5 -54z" />
    <glyph glyph-name="y" unicode="y" horiz-adv-x="320" 
d="M201 -7q48 40 78 81.5t41 64.5q6 14 13 28.5t11 26.5q6 13 14.5 10t8.5 -16q-6 -20 -17.5 -46.5t-29.5 -52.5q-15 -21 -28.5 -37.5t-27 -30.5t-28 -27.5t-30.5 -28.5q5 -45 10.5 -88.5t6.5 -91.5q0 -30 -6 -54.5t-21 -37.5t-39.5 -10t-60.5 29q-14 9 -25.5 21.5t-19.5 26
t-11 27t1 26.5q11 38 51.5 79.5t87.5 84.5q-3 18 -6 42.5t-5.5 47t-4 40t-1.5 22.5q-6 -18 -13.5 -32.5t-16 -23t-18.5 -10t-22 7.5q-15 12 -26.5 29t-19.5 34.5t-14 34t-10 28.5t5 16t17 -7q4 -13 11 -31t15.5 -35.5t17 -31t17.5 -18.5q10 -5 19.5 7.5t16.5 34t11 47.5
t5 47q1 4 4.5 7t8 3.5t8 -1.5t3.5 -6q0 -25 2 -56t4.5 -63t6 -62.5t6.5 -54.5zM111 -269q27 -20 45 -22.5t28.5 7.5t15 29.5t3.5 43.5q-2 37 -6.5 76t-10.5 84q-47 -38 -75.5 -70.5t-41.5 -60.5q-11 -23 4 -46.5t38 -40.5z" />
    <glyph glyph-name="z" unicode="z" horiz-adv-x="273" 
d="M198 -64q-15 -65 -42 -92.5t-46.5 -23t-22 37t30.5 87.5q12 19 26.5 35.5t30.5 31.5q-2 16 -13.5 22.5t-26 6t-27.5 -7.5t-18 -19q-5 -10 -14.5 -8t-9.5 13q1 6 6.5 25t12 44t13 52.5t9 51t0.5 40.5t-12 21q-11 4 -19.5 -6t-15 -25t-11.5 -30.5t-9 -21.5
q-7 -10 -15.5 -8.5t-6.5 14.5q8 24 16.5 47t19 38.5t24 21.5t31.5 -3q18 -11 21.5 -39t-0.5 -61.5t-13 -68t-17 -58.5q10 7 23.5 10t27 0.5t25 -10t18.5 -22.5l23 24l2 3q18 22 33.5 47t20.5 34q6 14 13 28.5t11 26.5q6 13 14.5 10t8.5 -16q-6 -20 -18 -46t-29 -53
q-7 -11 -22 -29.5t-33 -35.5l-17 -18q6 -27 -3 -70zM112 -157q13 -3 26 14t23 41t15.5 49t3.5 39q-8 -9 -23 -27.5t-28 -39.5t-19.5 -42t2.5 -34z" />
    <glyph glyph-name="braceleft" unicode="{" horiz-adv-x="213" 
d="M182 496q6 -1 9.5 -5t3.5 -8.5t-3 -8t-9 -4.5q-38 -1 -53.5 -10.5t-20.5 -30.5q-7 -27 -4.5 -60.5t5 -66.5t0 -63t-19.5 -51q19 -2 28.5 -16t12.5 -34t1.5 -44t-4 -45.5t-4.5 -38t1 -21.5q5 -10 14 -13t19 -2.5t20 2.5t16 2q13 -1 13.5 -12t-13.5 -12q-26 -4 -42.5 -4
t-26 2.5t-13.5 6.5t-6 8q-6 12 -6.5 30t1.5 38.5t4.5 41.5t2.5 39t-4.5 31t-16.5 18l-18 4q-24 -16 -48 -5q-8 5 -8.5 11.5t6.5 10.5q11 5 21 6.5t20 0.5l6 2q16 11 19 39.5t1 64t-4.5 72t2.5 63.5q6 29 28 46t70 16z" />
    <glyph glyph-name="bar" unicode="|" horiz-adv-x="141" 
d="M54 510q1 6 5 9t8 2.5t7.5 -4t3.5 -9.5q-4 -87 -2.5 -173.5t5 -173.5t7.5 -173.5t6 -173.5q0 -6 -3.5 -9.5t-8 -3.5t-8 3t-4.5 9q-2 88 -6 175t-7.5 174t-5 174t2.5 174z" />
    <glyph glyph-name="braceright" unicode="}" horiz-adv-x="229" 
d="M103 446q-14 18 -32 21.5t-38 -1.5q-12 1 -12.5 10.5t8.5 13.5q23 2 49 -1t40 -22q17 -22 21 -49t1.5 -56t-7.5 -57.5t-5 -53t8.5 -42.5t33.5 -26q20 5 39 0q9 -4 9 -12.5t-12 -12.5q-26 -6 -44 0q-28 -6 -35.5 -27.5t-7 -49t2.5 -56.5t-5 -50.5t-30.5 -31t-73.5 1.5
q-11 5 -9.5 14t13.5 11q41 -10 58.5 -2t22 26t1.5 43t-3.5 50.5t7 48.5t32.5 36q-18 13 -24.5 33.5t-6.5 45t4 51.5t6.5 53.5t1 50t-12.5 40.5z" />
    <glyph glyph-name="asciitilde" unicode="~" horiz-adv-x="203" 
d="M36 169q-5 -10 -13.5 -9.5t-10.5 11.5q1 7 5.5 21t11 28t15.5 24t18 10q12 0 22.5 -12t20 -26t18.5 -25t18 -10q12 1 18.5 17.5t8.5 33.5q2 11 10.5 11t10.5 -10q0 -29 -12.5 -52t-35.5 -24q-15 0 -27.5 11t-22.5 24.5t-17 24.5t-11 11t-8 -6t-8 -15t-7 -19.5t-4 -18.5z
" />
    <glyph glyph-name="exclamdown" unicode="&#xa1;" horiz-adv-x="174" 
d="M75 12v88.5t-0.5 74.5t-0.5 75v89q2 11 11.5 10t9.5 -11q0 -50 0.5 -88t1.5 -74t1.5 -74.5t0.5 -87.5q0 -6 -3.5 -9.5t-8 -4t-8 2.5t-4.5 9zM96 388q-2 -6 -4 -8q-8 -7 -15.5 -1.5t-5.5 13.5q2 6 7.5 9.5t10.5 3.5t7.5 -4t-0.5 -13z" />
    <glyph glyph-name="cent" unicode="&#xa2;" horiz-adv-x="211" 
d="M84 427q1 6 5 9t8.5 2.5t8 -4t3.5 -9.5v-66q15 -2 26 -16t19 -33t12 -38t4 -32q-1 -13 -12 -13t-12 11q1 25 -10 52t-27 37q1 -57 2.5 -112.5t2.5 -112.5q15 2 27 12t22 36q7 11 16 8.5t8 -13.5q-13 -33 -32 -49t-41 -19q1 -18 1 -36v-35q0 -6 -3.5 -9.5t-8 -3.5t-8.5 3
t-5 9v36t-1 37q-21 5 -35 25.5t-22 49t-8.5 60.5t5.5 61t20 51t35 30v72zM89 104q-1 57 -2.5 112.5t-2.5 112.5q-12 -7 -19.5 -24.5t-11.5 -40.5t-4 -48.5t4 -48.5t13 -40t23 -23z" />
    <glyph glyph-name="sterling" unicode="&#xa3;" horiz-adv-x="364" 
d="M66 194q-11 2 -11.5 10.5t9.5 13.5q18 0 36 1t37 3q-7 35 -8.5 71t11.5 75q12 36 36.5 45.5t50 1.5t45.5 -30t23 -50q0 -11 -9 -12.5t-15 7.5q-5 30 -21.5 47t-36 18.5t-37 -14.5t-23.5 -52q-5 -26 -1.5 -52.5t8.5 -52.5l64 8t64 7q6 0 10 -3.5t4.5 -8t-2.5 -8t-9 -4.5
q-32 -3 -63 -7t-62 -7q8 -27 14 -53.5t8 -52.5q35 -2 71 -6t71 -6q11 -2 11 -12t-12 -12q-33 1 -69 6t-72 7q-2 -20 -8 -36.5t-30 -22.5q-15 -3 -34 -0.5t-36 8.5t-31.5 15t-20.5 18q-9 12 -0.5 20t22.5 12.5t28.5 6.5t17.5 2q17 1 33 2t33 -1q-3 26 -8.5 51.5t-11.5 50.5
q-19 -2 -37.5 -3t-38.5 -1zM164 74q-29 1 -57 -2t-54 -12q8 -8 26.5 -15t37.5 -8.5t33 4t14 23.5v10z" />
    <glyph glyph-name="currency" unicode="&#xa4;" horiz-adv-x="263" 
d="M182 391q8 9 16.5 5t6.5 -16l-18 -45q9 -12 12 -25t-4 -23q15 -44 18 -91t-11 -80l34 -48q4 -6 3 -10.5t-5 -7t-9 -2t-9 5.5q-8 9 -14.5 18.5t-13.5 19.5q-12 -14 -30.5 -20t-44.5 -1q-23 4 -40 19l-25 -49q-6 -10 -16 -6.5t-7 16.5q5 14 12.5 29t17.5 34
q-11 20 -13.5 45.5t-0.5 52t8 51t13 42.5q-7 14 -13 28.5t-12 28.5q-3 13 6.5 16t16.5 -8l15 -37q20 31 45.5 32.5t45.5 -11.5zM147 338q-10 2 -20 2.5t-17 -6.5q-13 -10 -23.5 -32t-16.5 -48.5t-6.5 -54.5t7 -51.5t23.5 -39t43 -15.5q30 0 42 29t10.5 69t-13.5 81.5
t-29 65.5z" />
    <glyph glyph-name="yen" unicode="&#xa5;" horiz-adv-x="310" 
d="M80 70q-11 2 -12 10.5t9 13.5q16 1 40.5 5t50.5 11l2 41q-21 -4 -44 -8t-55 -9q-11 2 -12 10.5t10 13.5q26 4 50 8.5t50 9.5q-6 6 -18.5 21.5t-28 36t-32.5 43.5t-31 44.5t-23.5 38t-10.5 24.5q-1 6 2 10t7.5 4.5t8.5 -2t6 -8.5q1 -9 17.5 -34t37 -53.5t40 -55
t27.5 -38.5q7 66 10 135t10 126q5 8 13.5 5t7.5 -14l-17 -278l73 12q6 0 9.5 -3.5t4 -8t-2.5 -8t-9 -4.5l-76 -13l-2 -41l81 19q11 0 13.5 -9t-7.5 -15l-90 -20l-6 -92q-5 -11 -15.5 -9t-8.5 15l6 82q-23 -5 -43 -9.5t-42 -6.5z" />
    <glyph glyph-name="brokenbar" unicode="&#xa6;" horiz-adv-x="141" 
d="M70 -175q-2 79 -5 155t-7 154q1 11 11 10.5t13 -7.5q4 -81 7 -155.5t5 -155.5q0 -6 -3.5 -9.5t-8 -3.5t-8 3t-4.5 9zM54 498q1 6 5 9t8 2.5t7.5 -4t3.5 -9.5q-3 -77 -2.5 -152.5t2.5 -150.5q-2 -8 -12 -7t-12 8q-2 76 -3 152t3 152z" />
    <glyph glyph-name="section" unicode="&#xa7;" horiz-adv-x="279" 
d="M253 52q-8 -32 -40 -46.5t-69.5 -13.5t-72 18t-46.5 48q-1 11 7.5 15t15.5 -5q9 -25 36 -38t57 -14.5t55.5 8.5t31.5 31q3 11 -11.5 23t-37.5 25.5t-50.5 28.5t-49.5 32t-35.5 36.5t-8.5 41.5t27.5 34t54.5 17q-18 10 -34.5 21.5t-28.5 24.5t-18 28t-3 32q4 21 30.5 34.5
t58.5 17t62 -2.5t42 -22q2 -11 -5.5 -16t-15.5 2q-8 11 -30.5 15t-47 1.5t-45.5 -11.5t-25 -24q-4 -16 10 -31t37 -29.5t50.5 -29t50.5 -30t37 -31.5t10 -33q-8 -29 -38 -43t-65 -16q21 -12 41 -23.5t35 -23.5t23 -24.5t5 -26.5zM60 222q5 -13 16.5 -24t28.5 -22
q18 -3 38 -2.5t37.5 4.5t30 12.5t16.5 21.5q2 8 -5.5 16.5t-19 16.5t-25 15.5t-23.5 12.5q-18 1 -37 -2t-33.5 -9.5t-21.5 -16.5t-2 -23z" />
    <glyph glyph-name="dieresis" unicode="&#xa8;" horiz-adv-x="121" 
d="M12 336q1 10 7 14.5t12 3.5t11 -6t5 -14q-2 -8 -7 -11.5t-10.5 -3.5t-11 4t-6.5 12v1zM104 349q6 -7 4.5 -14t-6 -11.5t-11 -4.5t-10.5 7q-8 13 2 21.5t21 1.5z" />
    <glyph glyph-name="copyright" unicode="&#xa9;" horiz-adv-x="417" 
d="M259 345q9 0 12.5 -6.5t-0.5 -11.5q26 -6 46 -21q23 -15 42 -42t27 -53q12 -47 0.5 -88.5t-41 -73t-73.5 -49t-97 -16.5q-47 1 -81 23.5t-53 56.5t-22 74.5t11 78.5q17 42 40.5 67t52.5 38.5t63 18t73 4.5zM134 301q-26 -12 -52 -42q-30 -37 -38.5 -79t4 -78.5
t44.5 -62.5t83 -31q56 -5 102 19t70.5 63.5t21 88t-46.5 92.5q-19 20 -41.5 27.5t-46.5 8.5t-49 -2t-49 -4h-2zM234 213q3 -10 -5 -15t-16 3l-3 6q-8 0 -22 -10t-25.5 -22.5t-15.5 -25.5t7 -20q26 -15 55 -10.5t55 12.5q12 0 14 -8.5t-8 -15.5q-30 -10 -66 -13.5t-65 16.5
q-21 14 -17.5 34.5t18.5 39.5t36 33t37 16q6 0 8.5 -1t5.5 -5z" />
    <glyph glyph-name="guillemotleft" unicode="&#xab;" horiz-adv-x="216" 
d="M89 299q11 8 18 0.5t-1 -17.5q-9 -12 -17.5 -26t-16.5 -28t-15 -27.5t-12 -23.5q-17 -32 -16.5 -52.5t12.5 -36t32.5 -30.5t43.5 -36q8 -9 1.5 -16t-17.5 -2q-14 13 -31 26t-32 27.5t-25.5 31t-12.5 36.5q-1 12 8.5 35t23.5 49t29.5 50.5t27.5 39.5zM151 301q6 11 14.5 6
t4.5 -16q-14 -28 -31.5 -55t-31 -52t-18.5 -46.5t7 -38.5q8 -12 19.5 -20.5t24 -15.5t25 -13.5t23.5 -15.5q8 -9 1.5 -16t-17.5 -2q-23 19 -49 32t-47 36q-12 15 -12.5 34.5t6 41t18.5 43t24 40.5t23 34t16 24z" />
    <glyph glyph-name="registered" unicode="&#xae;" horiz-adv-x="417" 
d="M259 345q9 0 12.5 -6.5t-0.5 -11.5q26 -6 46 -21q23 -15 42 -42t27 -53q12 -47 0.5 -88.5t-41 -73t-73.5 -49t-97 -16.5q-47 1 -81 23.5t-53 56.5t-22 74.5t11 78.5q17 42 40.5 67t52.5 38.5t63 18t73 4.5zM134 301q-26 -12 -52 -42q-30 -37 -38.5 -79t4 -78.5
t44.5 -62.5t83 -31q56 -5 102 19t70.5 63.5t21 88t-46.5 92.5q-19 20 -41.5 27.5t-46.5 8.5t-49 -2t-49 -4h-2zM127 236q1 6 4.5 9t8 2.5t8 -4t3.5 -9.5v-48q9 24 25 37.5t32.5 18t29.5 -0.5t16.5 -17.5t-6.5 -33.5t-39 -48l-5 -3q37 1 61.5 -2t45.5 -13q9 -7 6 -15.5
t-14 -7.5q-15 8 -35 11.5t-40 4t-39 -1.5t-32 -5l-9 -39v-1q-6 -8 -13.5 -5t-9.5 12q0 40 1 79.5t1 79.5zM230 217q-12 8 -22 3.5t-18 -16.5t-14.5 -29.5t-11.5 -35.5q11 6 23 15t21.5 19t15.5 21.5t6 22.5z" />
    <glyph glyph-name="macron" unicode="&#xaf;" horiz-adv-x="172" 
d="M24 314q-11 2 -12 10.5t10 13.5q31 1 62 4t62 4q6 0 9.5 -3.5t4 -8t-2.5 -8t-9 -4.5q-31 -1 -61.5 -4t-62.5 -4z" />
    <glyph glyph-name="degree" unicode="&#xb0;" horiz-adv-x="134" 
d="M54 346q16 6 29 2t21.5 -14.5t13 -24.5t2 -27.5t-11.5 -24.5t-26 -15q-17 -3 -30 0t-21.5 10t-13 17t-4.5 19q0 18 11.5 35t29.5 23zM78 267q12 3 17 12.5t2.5 20t-12.5 17.5t-27 6q-11 -6 -16 -17t-3 -21.5t11.5 -16.5t27.5 -1z" />
    <glyph glyph-name="plusminus" unicode="&#xb1;" horiz-adv-x="236" 
d="M24 244q-12 2 -12 12.5t13 10.5h82q0 15 -0.5 26t-0.5 21.5v21.5v26q2 11 12 11t12 -10v-26.5v-22t0.5 -21.5t0.5 -26l79 1q13 0 14 -10.5t-12 -12.5l-79 -1l1 -92q0 -6 -3.5 -9.5t-8 -3.5t-8 3t-4.5 9l-1 93h-85zM42 100q-6 1 -8.5 5t-2.5 8t3 7.5t9 3.5h40.5t32 0.5
t32 0.5h40.5q6 0 9.5 -3.5t4 -7.5t-2 -8t-8.5 -5h-42t-32.5 -0.5t-32.5 -0.5h-42z" />
    <glyph glyph-name="acute" unicode="&#xb4;" horiz-adv-x="122" 
d="M86 411q3 6 8 7t9 -0.5t5.5 -5.5t-1.5 -10q-15 -29 -34 -52t-42 -46q-9 -5 -15.5 1.5t-1.5 15.5q21 23 39 43.5t33 46.5z" />
    <glyph glyph-name="mu" unicode="&#xb5;" horiz-adv-x="420" 
d="M25 258q1 6 5.5 9t9 2.5t8.5 -4t4 -9.5v-6q3 -17 12 -50.5t22.5 -67.5t29.5 -59.5t31 -25.5q18 0 33 28t27.5 63.5t21.5 67.5t15 41q11 16 23 1q8 -19 13.5 -50.5t12.5 -62.5t18 -53.5t29 -22.5q14 0 28 10.5t25 24.5q10 14 17 26.5t10 18.5q6 14 13 28.5t11 26.5
q6 13 14.5 10t8.5 -16q-6 -20 -18 -46t-29 -53q-4 -5 -9 -12t-12 -14q-27 -29 -51 -32t-43 16.5t-32.5 60t-19.5 99.5q-5 -15 -13.5 -45.5t-21 -62t-29.5 -55.5t-39 -25q-16 -1 -31 12t-28 33.5t-23.5 46.5t-18.5 51l-10 -330q0 -6 -3.5 -9.5t-8 -3.5t-8.5 3t-5 9z" />
    <glyph glyph-name="mu" unicode="&#x3bc;" horiz-adv-x="420" 
d="M25 258q1 6 5.5 9t9 2.5t8.5 -4t4 -9.5v-6q3 -17 12 -50.5t22.5 -67.5t29.5 -59.5t31 -25.5q18 0 33 28t27.5 63.5t21.5 67.5t15 41q11 16 23 1q8 -19 13.5 -50.5t12.5 -62.5t18 -53.5t29 -22.5q14 0 28 10.5t25 24.5q10 14 17 26.5t10 18.5q6 14 13 28.5t11 26.5
q6 13 14.5 10t8.5 -16q-6 -20 -18 -46t-29 -53q-4 -5 -9 -12t-12 -14q-27 -29 -51 -32t-43 16.5t-32.5 60t-19.5 99.5q-5 -15 -13.5 -45.5t-21 -62t-29.5 -55.5t-39 -25q-16 -1 -31 12t-28 33.5t-23.5 46.5t-18.5 51l-10 -330q0 -6 -3.5 -9.5t-8 -3.5t-8.5 3t-5 9z" />
    <glyph glyph-name="glyph115" unicode="&#xb7;" horiz-adv-x="119" 
d="M60 156q1 10 7 14t12 3t11 -6t5 -14q-1 -8 -6 -11.5t-11 -3.5t-11.5 4t-6.5 12v2z" />
    <glyph glyph-name="cedilla" unicode="&#xb8;" horiz-adv-x="130" 
d="M24 40q7 10 15.5 7.5t8.5 -13.5q-1 -4 -3.5 -13.5t-4.5 -20t-2.5 -19.5t2.5 -12q6 -6 15.5 -8t19.5 -3t20 -3t17 -9q11 -11 5 -22.5t-19.5 -21t-29 -16.5t-23.5 -8q-13 -2 -15 8.5t9 15.5q11 2 28.5 9.5t24.5 17.5q-9 7 -22.5 8t-24.5 4q-18 4 -24.5 15t-6.5 25.5t3.5 30
t6.5 28.5z" />
    <glyph glyph-name="guillemotright" unicode="&#xbb;" horiz-adv-x="222" 
d="M109 299q12 -15 27.5 -39.5t29.5 -50.5t23.5 -49t8.5 -35q-2 -20 -13 -36.5t-26 -31t-32 -27.5t-31 -26q-10 -5 -16.5 2t1.5 16q23 21 43 36t32 30.5t12.5 36t-15.5 52.5q-5 10 -12 23.5t-15 27.5t-16.5 28t-17.5 26q-8 10 -1 17.5t18 -0.5zM47 301q7 -13 26.5 -40
t36 -59t23.5 -64t-11 -54q-21 -23 -48 -36t-49 -32q-10 -5 -16.5 2t1.5 16q10 9 22.5 15.5t25 13.5t24 15.5t19.5 20.5q12 17 7 38.5t-18 46.5t-31 52t-31 55q-4 11 4.5 16t14.5 -6z" />
    <glyph glyph-name="questiondown" unicode="&#xbf;" horiz-adv-x="204" 
d="M164 58q6 2 10 -0.5t5.5 -7t0 -9.5t-5.5 -7q-13 -5 -32 -9t-38.5 -4t-35.5 7.5t-22 25.5q-9 28 4.5 61.5t31 67t31 64t6.5 52.5q-10 8 -6.5 17.5t14.5 3.5q16 -10 16.5 -29t-7 -42.5t-21 -50t-25 -52t-19 -47t-3.5 -34.5q5 -17 26.5 -20.5t69.5 13.5zM113 384q5 3 10 1
t7.5 -6t3 -9t-3.5 -9q-5 -5 -11 -3.5t-9.5 6t-3 10.5t6.5 10z" />
    <glyph glyph-name="Agrave" unicode="&#xc0;" horiz-adv-x="416" 
d="M14 124q-11 2 -11.5 10.5t9.5 13.5q9 0 18 0.5t18 1.5q7 40 16 82t20 81t24 72.5t28 55.5q6 8 22 12.5t24 -3.5q15 -32 25 -66t17.5 -68.5t14 -70t14.5 -69.5l88 12q6 0 10 -3.5t4.5 -8t-2.5 -8t-9 -4.5q-22 -2 -43 -5l-42 -6q4 -14 8 -27.5t9 -27.5q6 -17 13 -33
t16.5 -24.5t22.5 -7t30 20.5q20 22 36.5 48t21.5 37q7 14 13.5 28.5t10.5 26.5q7 13 15 10t8 -16q-5 -20 -17.5 -46t-29.5 -53q-14 -22 -33 -45t-40 -33.5t-41.5 -2.5t-37.5 49q-11 22 -18 45t-12 48q-42 -6 -83 -11.5t-80 -10.5l-20 -110q-4 -11 -15 -9.5t-11 13.5
q5 21 9.5 47.5t9.5 56.5q-8 -1 -15 -1.5t-15 -0.5zM165 428q-16 -11 -29 -39t-24 -65.5t-20 -81.5t-17 -89q38 4 77 9.5t77 10.5q-7 32 -12.5 64.5t-12 65t-16 64t-23.5 61.5zM135 546q-5 4 -5 9t3 8.5t8 4t10 -3.5q15 -16 29 -32.5t30 -31.5q4 -5 3.5 -10t-4 -8t-8.5 -3
t-9 5q-13 13 -26.5 27.5t-30.5 34.5z" />
    <glyph glyph-name="Aacute" unicode="&#xc1;" horiz-adv-x="416" 
d="M14 124q-11 2 -11.5 10.5t9.5 13.5q9 0 18 0.5t18 1.5q7 40 16 82t20 81t24 72.5t28 55.5q6 8 22 12.5t24 -3.5q15 -32 25 -66t17.5 -68.5t14 -70t14.5 -69.5l88 12q6 0 10 -3.5t4.5 -8t-2.5 -8t-9 -4.5q-22 -2 -43 -5l-42 -6q4 -14 8 -27.5t9 -27.5q6 -17 13 -33
t16.5 -24.5t22.5 -7t30 20.5q20 22 36.5 48t21.5 37q7 14 13.5 28.5t10.5 26.5q7 13 15 10t8 -16q-5 -20 -17.5 -46t-29.5 -53q-14 -22 -33 -45t-40 -33.5t-41.5 -2.5t-37.5 49q-11 22 -18 45t-12 48q-42 -6 -83 -11.5t-80 -10.5l-20 -110q-4 -11 -15 -9.5t-11 13.5
q5 21 9.5 47.5t9.5 56.5q-8 -1 -15 -1.5t-15 -0.5zM165 428q-16 -11 -29 -39t-24 -65.5t-20 -81.5t-17 -89q38 4 77 9.5t77 10.5q-7 32 -12.5 64.5t-12 65t-16 64t-23.5 61.5zM172 596q3 6 8 7t9 -0.5t5.5 -5.5t-1.5 -10q-15 -29 -34 -52t-42 -46q-9 -5 -15.5 1.5t-1.5 15.5
q21 23 39 43.5t33 46.5z" />
    <glyph glyph-name="Acircumflex" unicode="&#xc2;" horiz-adv-x="416" 
d="M14 124q-11 2 -11.5 10.5t9.5 13.5q9 0 18 0.5t18 1.5q7 40 16 82t20 81t24 72.5t28 55.5q6 8 22 12.5t24 -3.5q15 -32 25 -66t17.5 -68.5t14 -70t14.5 -69.5l88 12q6 0 10 -3.5t4.5 -8t-2.5 -8t-9 -4.5q-22 -2 -43 -5l-42 -6q4 -14 8 -27.5t9 -27.5q6 -17 13 -33
t16.5 -24.5t22.5 -7t30 20.5q20 22 36.5 48t21.5 37q7 14 13.5 28.5t10.5 26.5q7 13 15 10t8 -16q-5 -20 -17.5 -46t-29.5 -53q-14 -22 -33 -45t-40 -33.5t-41.5 -2.5t-37.5 49q-11 22 -18 45t-12 48q-42 -6 -83 -11.5t-80 -10.5l-20 -110q-4 -11 -15 -9.5t-11 13.5
q5 21 9.5 47.5t9.5 56.5q-8 -1 -15 -1.5t-15 -0.5zM165 428q-16 -11 -29 -39t-24 -65.5t-20 -81.5t-17 -89q38 4 77 9.5t77 10.5q-7 32 -12.5 64.5t-12 65t-16 64t-23.5 61.5zM129 494q-3 -4 -8 -5t-9 0.5t-6 5t0 8.5q5 10 11 25t12 29.5t12 25t12 12.5q5 1 9 1t9 -5
q8 -8 16 -21.5t14.5 -26.5t11 -23t5.5 -13q4 -12 -4.5 -15.5t-13.5 3.5q-8 12 -17.5 32t-21.5 40q-8 -14 -14.5 -32.5t-17.5 -40.5z" />
    <glyph glyph-name="Atilde" unicode="&#xc3;" horiz-adv-x="416" 
d="M14 124q-11 2 -11.5 10.5t9.5 13.5q9 0 18 0.5t18 1.5q7 40 16 82t20 81t24 72.5t28 55.5q6 8 22 12.5t24 -3.5q15 -32 25 -66t17.5 -68.5t14 -70t14.5 -69.5l88 12q6 0 10 -3.5t4.5 -8t-2.5 -8t-9 -4.5q-22 -2 -43 -5l-42 -6q4 -14 8 -27.5t9 -27.5q6 -17 13 -33
t16.5 -24.5t22.5 -7t30 20.5q20 22 36.5 48t21.5 37q7 14 13.5 28.5t10.5 26.5q7 13 15 10t8 -16q-5 -20 -17.5 -46t-29.5 -53q-14 -22 -33 -45t-40 -33.5t-41.5 -2.5t-37.5 49q-11 22 -18 45t-12 48q-42 -6 -83 -11.5t-80 -10.5l-20 -110q-4 -11 -15 -9.5t-11 13.5
q5 21 9.5 47.5t9.5 56.5q-8 -1 -15 -1.5t-15 -0.5zM165 428q-16 -11 -29 -39t-24 -65.5t-20 -81.5t-17 -89q38 4 77 9.5t77 10.5q-7 32 -12.5 64.5t-12 65t-16 64t-23.5 61.5zM127 493q-5 -11 -15.5 -9t-8.5 15q3 11 11 22t17 17q14 10 23 7t15 -11.5t10.5 -18.5t9 -14t10 1
t13.5 27q6 10 15 7.5t9 -13.5q-20 -53 -42.5 -49.5t-44.5 47.5q-8 -3 -14 -11.5t-8 -16.5z" />
    <glyph glyph-name="Adieresis" unicode="&#xc4;" horiz-adv-x="416" 
d="M14 124q-11 2 -11.5 10.5t9.5 13.5q9 0 18 0.5t18 1.5q7 40 16 82t20 81t24 72.5t28 55.5q6 8 22 12.5t24 -3.5q15 -32 25 -66t17.5 -68.5t14 -70t14.5 -69.5l88 12q6 0 10 -3.5t4.5 -8t-2.5 -8t-9 -4.5q-22 -2 -43 -5l-42 -6q4 -14 8 -27.5t9 -27.5q6 -17 13 -33
t16.5 -24.5t22.5 -7t30 20.5q20 22 36.5 48t21.5 37q7 14 13.5 28.5t10.5 26.5q7 13 15 10t8 -16q-5 -20 -17.5 -46t-29.5 -53q-14 -22 -33 -45t-40 -33.5t-41.5 -2.5t-37.5 49q-11 22 -18 45t-12 48q-42 -6 -83 -11.5t-80 -10.5l-20 -110q-4 -11 -15 -9.5t-11 13.5
q5 21 9.5 47.5t9.5 56.5q-8 -1 -15 -1.5t-15 -0.5zM165 428q-16 -11 -29 -39t-24 -65.5t-20 -81.5t-17 -89q38 4 77 9.5t77 10.5q-7 32 -12.5 64.5t-12 65t-16 64t-23.5 61.5zM112 521q1 10 7 14.5t12 3.5t11 -6t5 -14q-2 -8 -7 -11.5t-10.5 -3.5t-11 4t-6.5 12v1zM204 534
q6 -7 4.5 -14t-6 -11.5t-11 -4.5t-10.5 7q-8 13 2 21.5t21 1.5z" />
    <glyph glyph-name="Aring" unicode="&#xc5;" horiz-adv-x="416" 
d="M14 124q-11 2 -11.5 10.5t9.5 13.5q9 0 18 0.5t18 1.5q7 40 16 82t20 81t24 72.5t28 55.5q6 8 22 12.5t24 -3.5q15 -32 25 -66t17.5 -68.5t14 -70t14.5 -69.5l88 12q6 0 10 -3.5t4.5 -8t-2.5 -8t-9 -4.5q-22 -2 -43 -5l-42 -6q4 -14 8 -27.5t9 -27.5q6 -17 13 -33
t16.5 -24.5t22.5 -7t30 20.5q20 22 36.5 48t21.5 37q7 14 13.5 28.5t10.5 26.5q7 13 15 10t8 -16q-5 -20 -17.5 -46t-29.5 -53q-14 -22 -33 -45t-40 -33.5t-41.5 -2.5t-37.5 49q-11 22 -18 45t-12 48q-42 -6 -83 -11.5t-80 -10.5l-20 -110q-4 -11 -15 -9.5t-11 13.5
q5 21 9.5 47.5t9.5 56.5q-8 -1 -15 -1.5t-15 -0.5zM165 428q-16 -11 -29 -39t-24 -65.5t-20 -81.5t-17 -89q38 4 77 9.5t77 10.5q-7 32 -12.5 64.5t-12 65t-16 64t-23.5 61.5zM159 576q7 0 12 -5q24 -7 33 -22t5 -30t-21 -26t-44 -9q-21 1 -26.5 14t-1 29.5t16 31t26.5 17.5
zM147 508q10 -3 20.5 1.5t15.5 12t0.5 15.5t-25.5 11q-6 -3 -11.5 -8.5t-8 -11.5t-1 -11.5t9.5 -8.5z" />
    <glyph glyph-name="AE" unicode="&#xc6;" horiz-adv-x="625" 
d="M453 431q10 -8 6.5 -16.5t-14.5 -6.5q-21 6 -54 2t-63 -15.5t-51 -30t-19 -41.5q1 -15 19.5 -23t42 -11t47 -2.5t35.5 0.5q26 13 45 11t25 -9.5t-3.5 -16t-39.5 -8.5q-35 -8 -69.5 -19.5t-68.5 -34.5q-32 -20 -51 -43.5t-22 -46t12 -42t53 -31.5q32 32 71.5 56.5
t74.5 36.5q14 4 41 9t54.5 5t49.5 -8.5t25 -30.5q5 -26 -18 -49t-70 -37q-19 -6 -46 -11t-57.5 -7.5t-61.5 -1.5t-57 8q-29 -35 -38 -72t0 -84q0 -11 -9.5 -12.5t-14.5 7.5q-4 18 -5.5 37.5t1.5 40.5t12.5 44t28.5 47q-52 22 -65.5 53.5t0.5 65.5q-65 -9 -128 -15l-20 -111
q-4 -11 -15 -9.5t-11 13.5q5 21 9.5 47.5t9.5 56.5q-8 -1 -15 -1.5t-15 -0.5q-11 2 -11.5 10.5t9.5 13.5q9 0 18 0.5t18 1.5q7 40 16 82t20 81t24 72.5t28 55.5q6 8 22 12.5t24 -3.5q26 -57 38.5 -119t26.5 -125q20 16 43.5 30.5t52.5 25.5q-13 0 -31 2.5t-34.5 8t-29 16
t-14.5 27.5q-3 23 8 42t30 33.5t44 24.5t50.5 14.5t48.5 5t38 -4.5zM165 428q-16 -11 -29 -39t-24 -65.5t-20 -81.5t-17 -89q34 4 69 8.5t70 9.5l12 14q-12 63 -23 124.5t-38 118.5zM437 116q-33 -11 -66.5 -32t-61.5 -47q18 -5 45 -6.5t56.5 1t58.5 8.5t52.5 16t38 24
t14.5 31q-5 11 -21 15.5t-36.5 4t-42 -4.5t-37.5 -10z" />
    <glyph glyph-name="Ccedilla" unicode="&#xc7;" horiz-adv-x="387" 
d="M158 14q-4 -14 -7 -29t2 -20q6 -6 15.5 -8t20 -3t20 -3t17.5 -9q11 -11 5 -22.5t-19.5 -21t-29.5 -16t-24 -7.5q-13 -2 -15 8t9 16q12 2 29.5 9t23.5 17q-9 8 -22 9t-25 3q-15 3 -21.5 11t-8.5 18.5t0 23t5 24.5h25zM245 375q11 -35 17.5 -60.5t6.5 -44.5q0 -11 -4 -16
t-9 -5t-9 4t-3 12q1 13 -1.5 27t-6.5 30q-5 19 -12.5 38t-17.5 34t-22.5 25.5t-26.5 12.5q-22 3 -40 -8t-32.5 -31.5t-25 -47.5t-17.5 -55.5t-10.5 -56t-2.5 -48.5q1 -22 3.5 -43.5t8 -40.5t14 -34t21.5 -24q23 -15 52.5 -17.5t62 5t65.5 23.5t62.5 37.5t53.5 48t39 54.5
q7 10 15 8t8 -14q-12 -31 -37 -60.5t-57.5 -54t-69.5 -42t-75 -25t-73.5 -3t-63.5 24.5t-39.5 60t-12.5 86t6.5 90t16.5 71q7 19 19.5 42t29.5 42t38 30.5t44 7.5q25 -4 47 -27t38 -55z" />
    <glyph glyph-name="Egrave" unicode="&#xc8;" horiz-adv-x="438" 
d="M267 431q9 -8 5.5 -16.5t-14.5 -6.5q-21 6 -54 2t-63 -15.5t-51 -30t-19 -41.5q1 -15 19.5 -23t42 -11t47 -2.5t35.5 0.5q26 13 45 11t25 -9.5t-3.5 -16t-39.5 -8.5q-35 -8 -69 -19.5t-69 -34.5q-32 -20 -51 -43.5t-22 -46t12 -42t53 -31.5q32 32 71.5 56.5t74.5 36.5
q14 4 41 9t54.5 5t49.5 -8.5t25 -30.5q5 -26 -18 -49t-70 -37q-19 -6 -46 -11t-57.5 -7.5t-61.5 -1.5t-56 8q-29 -35 -38.5 -72t-0.5 -84q0 -11 -9.5 -12.5t-14.5 7.5q-4 18 -5.5 37.5t1.5 40.5t12.5 44t28.5 47q-51 22 -65 54t0 65.5t52.5 65t91.5 52.5q-13 0 -31 2.5
t-34.5 8t-29 16t-14.5 27.5q-3 23 8 42t30 33.5t44 24.5t50.5 14.5t49 5t38.5 -4.5zM250 116q-33 -11 -66.5 -32t-61.5 -47q18 -5 45 -6.5t56.5 1t58.5 8.5t52.5 16t38 24t14.5 31q-5 11 -21 15.5t-36.5 4t-42 -4.5t-37.5 -10zM141 533q-5 4 -5 9t3 8.5t8 4t10 -3.5
q15 -16 29 -32.5t30 -31.5q4 -5 3.5 -10t-4 -8t-8.5 -3t-9 5q-13 13 -26.5 27.5t-30.5 34.5z" />
    <glyph glyph-name="Eacute" unicode="&#xc9;" horiz-adv-x="438" 
d="M267 431q9 -8 5.5 -16.5t-14.5 -6.5q-21 6 -54 2t-63 -15.5t-51 -30t-19 -41.5q1 -15 19.5 -23t42 -11t47 -2.5t35.5 0.5q26 13 45 11t25 -9.5t-3.5 -16t-39.5 -8.5q-35 -8 -69 -19.5t-69 -34.5q-32 -20 -51 -43.5t-22 -46t12 -42t53 -31.5q32 32 71.5 56.5t74.5 36.5
q14 4 41 9t54.5 5t49.5 -8.5t25 -30.5q5 -26 -18 -49t-70 -37q-19 -6 -46 -11t-57.5 -7.5t-61.5 -1.5t-56 8q-29 -35 -38.5 -72t-0.5 -84q0 -11 -9.5 -12.5t-14.5 7.5q-4 18 -5.5 37.5t1.5 40.5t12.5 44t28.5 47q-51 22 -65 54t0 65.5t52.5 65t91.5 52.5q-13 0 -31 2.5
t-34.5 8t-29 16t-14.5 27.5q-3 23 8 42t30 33.5t44 24.5t50.5 14.5t49 5t38.5 -4.5zM250 116q-33 -11 -66.5 -32t-61.5 -47q18 -5 45 -6.5t56.5 1t58.5 8.5t52.5 16t38 24t14.5 31q-5 11 -21 15.5t-36.5 4t-42 -4.5t-37.5 -10zM207 571q3 6 8 7t9 -0.5t5.5 -5.5t-1.5 -10
q-15 -29 -34 -52t-42 -46q-9 -5 -15.5 1.5t-1.5 15.5q21 23 39 43.5t33 46.5z" />
    <glyph glyph-name="Ecircumflex" unicode="&#xca;" horiz-adv-x="438" 
d="M267 431q9 -8 5.5 -16.5t-14.5 -6.5q-21 6 -54 2t-63 -15.5t-51 -30t-19 -41.5q1 -15 19.5 -23t42 -11t47 -2.5t35.5 0.5q26 13 45 11t25 -9.5t-3.5 -16t-39.5 -8.5q-35 -8 -69 -19.5t-69 -34.5q-32 -20 -51 -43.5t-22 -46t12 -42t53 -31.5q32 32 71.5 56.5t74.5 36.5
q14 4 41 9t54.5 5t49.5 -8.5t25 -30.5q5 -26 -18 -49t-70 -37q-19 -6 -46 -11t-57.5 -7.5t-61.5 -1.5t-56 8q-29 -35 -38.5 -72t-0.5 -84q0 -11 -9.5 -12.5t-14.5 7.5q-4 18 -5.5 37.5t1.5 40.5t12.5 44t28.5 47q-51 22 -65 54t0 65.5t52.5 65t91.5 52.5q-13 0 -31 2.5
t-34.5 8t-29 16t-14.5 27.5q-3 23 8 42t30 33.5t44 24.5t50.5 14.5t49 5t38.5 -4.5zM250 116q-33 -11 -66.5 -32t-61.5 -47q18 -5 45 -6.5t56.5 1t58.5 8.5t52.5 16t38 24t14.5 31q-5 11 -21 15.5t-36.5 4t-42 -4.5t-37.5 -10zM152 477q-3 -4 -8 -5t-9 0.5t-6 5t0 8.5
q5 10 11 25t12 29.5t12 25t12 12.5q5 1 9 1t9 -5q8 -8 16 -21.5t14.5 -26.5t11 -23t5.5 -13q4 -12 -4.5 -15.5t-13.5 3.5q-8 12 -17.5 32t-21.5 40q-8 -14 -14.5 -32.5t-17.5 -40.5z" />
    <glyph glyph-name="Edieresis" unicode="&#xcb;" horiz-adv-x="438" 
d="M267 431q9 -8 5.5 -16.5t-14.5 -6.5q-21 6 -54 2t-63 -15.5t-51 -30t-19 -41.5q1 -15 19.5 -23t42 -11t47 -2.5t35.5 0.5q26 13 45 11t25 -9.5t-3.5 -16t-39.5 -8.5q-35 -8 -69 -19.5t-69 -34.5q-32 -20 -51 -43.5t-22 -46t12 -42t53 -31.5q32 32 71.5 56.5t74.5 36.5
q14 4 41 9t54.5 5t49.5 -8.5t25 -30.5q5 -26 -18 -49t-70 -37q-19 -6 -46 -11t-57.5 -7.5t-61.5 -1.5t-56 8q-29 -35 -38.5 -72t-0.5 -84q0 -11 -9.5 -12.5t-14.5 7.5q-4 18 -5.5 37.5t1.5 40.5t12.5 44t28.5 47q-51 22 -65 54t0 65.5t52.5 65t91.5 52.5q-13 0 -31 2.5
t-34.5 8t-29 16t-14.5 27.5q-3 23 8 42t30 33.5t44 24.5t50.5 14.5t49 5t38.5 -4.5zM250 116q-33 -11 -66.5 -32t-61.5 -47q18 -5 45 -6.5t56.5 1t58.5 8.5t52.5 16t38 24t14.5 31q-5 11 -21 15.5t-36.5 4t-42 -4.5t-37.5 -10zM129 508q1 10 7 14.5t12 3.5t11 -6t5 -14
q-2 -8 -7 -11.5t-10.5 -3.5t-11 4t-6.5 12v1zM221 521q6 -7 4.5 -14t-6 -11.5t-11 -4.5t-10.5 7q-8 13 2 21.5t21 1.5z" />
    <glyph glyph-name="Igrave" unicode="&#xcc;" 
d="M228 188q14 3 16.5 -7.5t-15.5 -16.5q0 -30 -4 -58.5t-13 -51.5t-24 -39t-36 -22q-18 -5 -40.5 -2t-43.5 11.5t-38.5 22t-24.5 29.5q-1 11 7 14.5t16 -5.5q3 -8 14 -18.5t27.5 -18.5t36 -12t38.5 2q18 5 30 19t19 34t10 43.5t3 47.5q-26 -5 -57.5 -1t-59.5 17t-49.5 34.5
t-28.5 53.5q-6 30 12.5 65t47 65t58.5 49.5t47 19.5q9 0 11 -4q6 -10 13 -40t13 -69.5t10.5 -82.5t4.5 -79zM35 270q6 -24 24.5 -42.5t42.5 -29.5t51.5 -15t52.5 2q0 34 -3.5 73t-8.5 74.5t-11.5 63t-11.5 38.5q-16 0 -41.5 -18t-48 -44t-37 -54t-9.5 -48zM107 558
q-5 4 -5 9t3 8.5t8 4t10 -3.5q15 -16 29 -32.5t30 -31.5q4 -5 3.5 -10t-4 -8t-8.5 -3t-9 5q-13 13 -26.5 27.5t-30.5 34.5z" />
    <glyph glyph-name="Iacute" unicode="&#xcd;" 
d="M228 188q14 3 16.5 -7.5t-15.5 -16.5q0 -30 -4 -58.5t-13 -51.5t-24 -39t-36 -22q-18 -5 -40.5 -2t-43.5 11.5t-38.5 22t-24.5 29.5q-1 11 7 14.5t16 -5.5q3 -8 14 -18.5t27.5 -18.5t36 -12t38.5 2q18 5 30 19t19 34t10 43.5t3 47.5q-26 -5 -57.5 -1t-59.5 17t-49.5 34.5
t-28.5 53.5q-6 30 12.5 65t47 65t58.5 49.5t47 19.5q9 0 11 -4q6 -10 13 -40t13 -69.5t10.5 -82.5t4.5 -79zM35 270q6 -24 24.5 -42.5t42.5 -29.5t51.5 -15t52.5 2q0 34 -3.5 73t-8.5 74.5t-11.5 63t-11.5 38.5q-16 0 -41.5 -18t-48 -44t-37 -54t-9.5 -48zM168 596q3 6 8 7
t9 -0.5t5.5 -5.5t-1.5 -10q-15 -29 -34 -52t-42 -46q-9 -5 -15.5 1.5t-1.5 15.5q21 23 39 43.5t33 46.5z" />
    <glyph glyph-name="Icircumflex" unicode="&#xce;" 
d="M228 188q14 3 16.5 -7.5t-15.5 -16.5q0 -30 -4 -58.5t-13 -51.5t-24 -39t-36 -22q-18 -5 -40.5 -2t-43.5 11.5t-38.5 22t-24.5 29.5q-1 11 7 14.5t16 -5.5q3 -8 14 -18.5t27.5 -18.5t36 -12t38.5 2q18 5 30 19t19 34t10 43.5t3 47.5q-26 -5 -57.5 -1t-59.5 17t-49.5 34.5
t-28.5 53.5q-6 30 12.5 65t47 65t58.5 49.5t47 19.5q9 0 11 -4q6 -10 13 -40t13 -69.5t10.5 -82.5t4.5 -79zM35 270q6 -24 24.5 -42.5t42.5 -29.5t51.5 -15t52.5 2q0 34 -3.5 73t-8.5 74.5t-11.5 63t-11.5 38.5q-16 0 -41.5 -18t-48 -44t-37 -54t-9.5 -48zM111 494
q-3 -4 -8 -5t-9 0.5t-6 5t0 8.5q5 10 11 25t12 29.5t12 25t12 12.5q5 1 9 1t9 -5q8 -8 16 -21.5t14.5 -26.5t11 -23t5.5 -13q4 -12 -4.5 -15.5t-13.5 3.5q-8 12 -17.5 32t-21.5 40q-8 -14 -14.5 -32.5t-17.5 -40.5z" />
    <glyph glyph-name="Idieresis" unicode="&#xcf;" 
d="M228 188q14 3 16.5 -7.5t-15.5 -16.5q0 -30 -4 -58.5t-13 -51.5t-24 -39t-36 -22q-18 -5 -40.5 -2t-43.5 11.5t-38.5 22t-24.5 29.5q-1 11 7 14.5t16 -5.5q3 -8 14 -18.5t27.5 -18.5t36 -12t38.5 2q18 5 30 19t19 34t10 43.5t3 47.5q-26 -5 -57.5 -1t-59.5 17t-49.5 34.5
t-28.5 53.5q-6 30 12.5 65t47 65t58.5 49.5t47 19.5q9 0 11 -4q6 -10 13 -40t13 -69.5t10.5 -82.5t4.5 -79zM35 270q6 -24 24.5 -42.5t42.5 -29.5t51.5 -15t52.5 2q0 34 -3.5 73t-8.5 74.5t-11.5 63t-11.5 38.5q-16 0 -41.5 -18t-48 -44t-37 -54t-9.5 -48zM90 521
q1 10 7 14.5t12 3.5t11 -6t5 -14q-2 -8 -7 -11.5t-10.5 -3.5t-11 4t-6.5 12v1zM182 534q6 -7 4.5 -14t-6 -11.5t-11 -4.5t-10.5 7q-8 13 2 21.5t21 1.5z" />
    <glyph glyph-name="Eth" unicode="&#xd0;" horiz-adv-x="410" 
d="M16 148q-12 2 -12 12t13 10q48 0 90.5 0.5t90.5 0.5q13 0 14 -10t-12 -12q-49 0 -91.5 -0.5t-92.5 -0.5zM112 468q4 12 13 12.5t11 -10.5q-1 -11 -0.5 -22.5t0.5 -22.5q30 -4 71.5 -21t80 -43.5t67 -60.5t33.5 -72q6 -44 -21 -77.5t-67.5 -57.5t-85 -39t-75.5 -23l-2 -4
q-1 -6 -5 -14t-9.5 -14.5t-12.5 -9t-14 2.5q-5 2 -8.5 10.5t-9.5 19.5q-14 2 -18 10.5t8 24.5q-24 64 -43 130t-20.5 119.5t22 87t85.5 32.5q0 11 -0.5 21t0.5 21zM362 224q-5 34 -29.5 64.5t-58 53.5t-70.5 38t-67 19q0 -32 2 -73t4.5 -87t3 -93t-2.5 -91q25 6 64 19t75 34
t60 50t19 66zM119 52q4 37 4.5 81.5t-1.5 91t-5 92.5t-5 85q-41 5 -59 -15t-21 -54t5.5 -77t21 -84t24.5 -75t17 -50q10 0 18 5h1zM109 18l1.5 3t0.5 3q-1 0 -2 -0.5t-3 -0.5z" />
    <glyph glyph-name="Ntilde" unicode="&#xd1;" horiz-adv-x="514" 
d="M210 -13q-7 15 -11 36.5t-5.5 44.5t-1.5 46.5t1 43.5h-1q-19 -2 -42 -4t-46 0.5t-44.5 11t-37.5 27.5q-18 21 -18 50t11.5 60t32 60.5t45 51.5t49 33.5t44.5 6.5t32 -29.5t11 -74.5q0 -19 -0.5 -30.5t-1.5 -25t-2.5 -32.5t-3.5 -53q-2 -27 -3 -49t-0.5 -42.5t1.5 -41
t4 -44.5q6 15 14 42.5t17.5 61t20 71t23 72t27 63t30.5 45.5q3 4 10.5 9t15.5 7.5t16 1t12 -11.5q9 -34 12 -85.5t7.5 -108.5t15 -111t33.5 -92t62.5 -53t103.5 7q6 0 9.5 -3.5t4 -8t-2.5 -8.5t-9 -5q-69 -22 -113.5 -7t-70.5 53t-38.5 92t-18 112t-8 112.5t-9.5 92.5
q-19 -15 -34.5 -42.5t-28.5 -62t-24 -73t-22 -76t-22 -71t-24 -58.5q0 -9 -9 -14.5t-13 3.5zM41 209q15 -19 39 -25.5t47.5 -6.5t42.5 2.5t24 1.5q1 28 2.5 48.5t2.5 39t2.5 38.5t3.5 48q4 53 -11 69t-38.5 6t-50.5 -38t-46.5 -62t-26.5 -67.5t9 -53.5zM328 470
q-5 -11 -15.5 -9t-8.5 15q3 11 11 22t17 17q14 10 23 7t15 -11.5t10.5 -18.5t9 -14t10 1t13.5 27q6 10 15 7.5t9 -13.5q-20 -53 -42.5 -49.5t-44.5 47.5q-8 -3 -14 -11.5t-8 -16.5z" />
    <glyph glyph-name="Ograve" unicode="&#xd2;" horiz-adv-x="455" 
d="M136 4q-34 6 -59.5 27t-42 51.5t-24 68.5t-5.5 77q2 45 19.5 94.5t52.5 83.5q29 30 66.5 40t76.5 4t75.5 -26t65 -49.5t45 -67.5t14.5 -79q-2 -20 -6.5 -40t-13.5 -41q6 4 12 6t13 6q6 3 10 1.5t5.5 -5t0.5 -8.5t-7 -8q-20 -13 -31.5 -16t-25.5 -8q-17 -25 -41 -48.5
t-54.5 -40t-67 -23.5t-78.5 1zM119 240q19 -26 47.5 -48.5t61.5 -38t68.5 -21.5t68.5 3q14 22 21.5 46t10.5 48q2 35 -12 67.5t-39 59t-57.5 45t-67 25t-67.5 -0.5t-59 -32q-10 -16 -12 -36.5t2 -41.5t13 -40.5t21 -34.5zM346 109q-39 -7 -87.5 6.5t-91.5 44t-74.5 75.5
t-35.5 100q-21 -38 -26.5 -87.5t5 -95.5t37 -80.5t69.5 -43.5q58 -12 112.5 11.5t91.5 69.5zM154 546q-5 4 -5 9t3 8.5t8 4t10 -3.5q15 -16 29 -32.5t30 -31.5q4 -5 3.5 -10t-4 -8t-8.5 -3t-9 5q-13 13 -26.5 27.5t-30.5 34.5z" />
    <glyph glyph-name="Oacute" unicode="&#xd3;" horiz-adv-x="455" 
d="M136 4q-34 6 -59.5 27t-42 51.5t-24 68.5t-5.5 77q2 45 19.5 94.5t52.5 83.5q29 30 66.5 40t76.5 4t75.5 -26t65 -49.5t45 -67.5t14.5 -79q-2 -20 -6.5 -40t-13.5 -41q6 4 12 6t13 6q6 3 10 1.5t5.5 -5t0.5 -8.5t-7 -8q-20 -13 -31.5 -16t-25.5 -8q-17 -25 -41 -48.5
t-54.5 -40t-67 -23.5t-78.5 1zM119 240q19 -26 47.5 -48.5t61.5 -38t68.5 -21.5t68.5 3q14 22 21.5 46t10.5 48q2 35 -12 67.5t-39 59t-57.5 45t-67 25t-67.5 -0.5t-59 -32q-10 -16 -12 -36.5t2 -41.5t13 -40.5t21 -34.5zM346 109q-39 -7 -87.5 6.5t-91.5 44t-74.5 75.5
t-35.5 100q-21 -38 -26.5 -87.5t5 -95.5t37 -80.5t69.5 -43.5q58 -12 112.5 11.5t91.5 69.5zM215 596q3 6 8 7t9 -0.5t5.5 -5.5t-1.5 -10q-15 -29 -34 -52t-42 -46q-9 -5 -15.5 1.5t-1.5 15.5q21 23 39 43.5t33 46.5z" />
    <glyph glyph-name="Ocircumflex" unicode="&#xd4;" horiz-adv-x="455" 
d="M136 4q-34 6 -59.5 27t-42 51.5t-24 68.5t-5.5 77q2 45 19.5 94.5t52.5 83.5q29 30 66.5 40t76.5 4t75.5 -26t65 -49.5t45 -67.5t14.5 -79q-2 -20 -6.5 -40t-13.5 -41q6 4 12 6t13 6q6 3 10 1.5t5.5 -5t0.5 -8.5t-7 -8q-20 -13 -31.5 -16t-25.5 -8q-17 -25 -41 -48.5
t-54.5 -40t-67 -23.5t-78.5 1zM119 240q19 -26 47.5 -48.5t61.5 -38t68.5 -21.5t68.5 3q14 22 21.5 46t10.5 48q2 35 -12 67.5t-39 59t-57.5 45t-67 25t-67.5 -0.5t-59 -32q-10 -16 -12 -36.5t2 -41.5t13 -40.5t21 -34.5zM346 109q-39 -7 -87.5 6.5t-91.5 44t-74.5 75.5
t-35.5 100q-21 -38 -26.5 -87.5t5 -95.5t37 -80.5t69.5 -43.5q58 -12 112.5 11.5t91.5 69.5zM158 494q-3 -4 -8 -5t-9 0.5t-6 5t0 8.5q5 10 11 25t12 29.5t12 25t12 12.5q5 1 9 1t9 -5q8 -8 16 -21.5t14.5 -26.5t11 -23t5.5 -13q4 -12 -4.5 -15.5t-13.5 3.5q-8 12 -17.5 32
t-21.5 40q-8 -14 -14.5 -32.5t-17.5 -40.5z" />
    <glyph glyph-name="Otilde" unicode="&#xd5;" horiz-adv-x="455" 
d="M136 4q-34 6 -59.5 27t-42 51.5t-24 68.5t-5.5 77q2 45 19.5 94.5t52.5 83.5q29 30 66.5 40t76.5 4t75.5 -26t65 -49.5t45 -67.5t14.5 -79q-2 -20 -6.5 -40t-13.5 -41q6 4 12 6t13 6q6 3 10 1.5t5.5 -5t0.5 -8.5t-7 -8q-20 -13 -31.5 -16t-25.5 -8q-17 -25 -41 -48.5
t-54.5 -40t-67 -23.5t-78.5 1zM119 240q19 -26 47.5 -48.5t61.5 -38t68.5 -21.5t68.5 3q14 22 21.5 46t10.5 48q2 35 -12 67.5t-39 59t-57.5 45t-67 25t-67.5 -0.5t-59 -32q-10 -16 -12 -36.5t2 -41.5t13 -40.5t21 -34.5zM346 109q-39 -7 -87.5 6.5t-91.5 44t-74.5 75.5
t-35.5 100q-21 -38 -26.5 -87.5t5 -95.5t37 -80.5t69.5 -43.5q58 -12 112.5 11.5t91.5 69.5zM158 501q-5 -11 -15.5 -9t-8.5 15q3 11 11 22t17 17q14 10 23 7t15 -11.5t10.5 -18.5t9 -14t10 1t13.5 27q6 10 15 7.5t9 -13.5q-20 -53 -42.5 -49.5t-44.5 47.5q-8 -3 -14 -11.5
t-8 -16.5z" />
    <glyph glyph-name="Odieresis" unicode="&#xd6;" horiz-adv-x="455" 
d="M136 4q-34 6 -59.5 27t-42 51.5t-24 68.5t-5.5 77q2 45 19.5 94.5t52.5 83.5q29 30 66.5 40t76.5 4t75.5 -26t65 -49.5t45 -67.5t14.5 -79q-2 -20 -6.5 -40t-13.5 -41q6 4 12 6t13 6q6 3 10 1.5t5.5 -5t0.5 -8.5t-7 -8q-20 -13 -31.5 -16t-25.5 -8q-17 -25 -41 -48.5
t-54.5 -40t-67 -23.5t-78.5 1zM119 240q19 -26 47.5 -48.5t61.5 -38t68.5 -21.5t68.5 3q14 22 21.5 46t10.5 48q2 35 -12 67.5t-39 59t-57.5 45t-67 25t-67.5 -0.5t-59 -32q-10 -16 -12 -36.5t2 -41.5t13 -40.5t21 -34.5zM346 109q-39 -7 -87.5 6.5t-91.5 44t-74.5 75.5
t-35.5 100q-21 -38 -26.5 -87.5t5 -95.5t37 -80.5t69.5 -43.5q58 -12 112.5 11.5t91.5 69.5zM137 521q1 10 7 14.5t12 3.5t11 -6t5 -14q-2 -8 -7 -11.5t-10.5 -3.5t-11 4t-6.5 12v1zM229 534q6 -7 4.5 -14t-6 -11.5t-11 -4.5t-10.5 7q-8 13 2 21.5t21 1.5z" />
    <glyph glyph-name="multiply" unicode="&#xd7;" horiz-adv-x="227" 
d="M29 257q-5 4 -5 9t3 8.5t8 4t10 -3.5l54 -52l46 69q3 5 8 6.5t9 0t5.5 -6t-1.5 -10.5l-49 -76l82 -83q4 -5 3.5 -9.5t-4 -7.5t-8.5 -3.5t-9 4.5l-76 78l-52 -75q-4 -5 -8.5 -5.5t-8 2t-4.5 7t2 9.5l53 78z" />
    <glyph glyph-name="Oslash" unicode="&#xd8;" horiz-adv-x="455" 
d="M136 4q-34 6 -59.5 27t-42 51.5t-24 68.5t-5.5 77q2 45 19.5 94.5t52.5 83.5q29 30 66.5 40t76.5 4t75.5 -26t65 -49.5t45 -67.5t14.5 -79q-2 -20 -6.5 -40t-13.5 -41q6 4 12 6t13 6q6 3 10 1.5t5.5 -5t0.5 -8.5t-7 -8q-20 -13 -31.5 -16t-25.5 -8q-17 -25 -41 -48.5
t-54.5 -40t-67 -23.5t-78.5 1zM119 240q19 -26 47.5 -48.5t61.5 -38t68.5 -21.5t68.5 3q14 22 21.5 46t10.5 48q2 35 -12 67.5t-39 59t-57.5 45t-67 25t-67.5 -0.5t-59 -32q-10 -16 -12 -36.5t2 -41.5t13 -40.5t21 -34.5zM346 109q-39 -7 -87.5 6.5t-91.5 44t-74.5 75.5
t-35.5 100q-21 -38 -26.5 -87.5t5 -95.5t37 -80.5t69.5 -43.5q58 -12 112.5 11.5t91.5 69.5zM262 470q4 14 13 11.5t11 -15.5q-32 -126 -67.5 -253.5t-75.5 -245.5q-5 -11 -15 -9t-8 15q14 43 33.5 108.5t39.5 136.5t38.5 138t30.5 114z" />
    <glyph glyph-name="Ugrave" unicode="&#xd9;" horiz-adv-x="420" 
d="M28 414q-5 -11 -15.5 -9t-8.5 15q3 11 11 16t18 5t20.5 -4.5t17.5 -13.5q11 -14 15.5 -38.5t5 -56t-1 -66.5t-2.5 -68t0 -62.5t7 -49.5q7 -24 22.5 -33t34.5 -7.5t40 10.5t41 22.5t36.5 28t25.5 26.5q-6 48 -11 94t-7 94q0 17 -1 38t-0.5 41.5t3.5 38t9 28.5q7 10 17 6
q18 -8 32 -27t23 -42.5t13 -48.5t3 -43q-1 -51 -12 -95t-43 -89q5 -33 8.5 -55t6.5 -38.5t6 -30t8 -28.5q2 -6 -0.5 -10t-6.5 -5.5t-8.5 0t-7.5 7.5q-10 35 -15.5 65t-12.5 69q-15 -18 -34 -32.5t-39.5 -25.5t-41 -17t-38.5 -6q-43 0 -61.5 29t-22.5 72.5t0 95t5.5 96
t-5.5 75t-33 32.5q0 -1 -0.5 -1.5t-0.5 -1.5zM306 441q-6 -23 -7.5 -55t0.5 -70q2 -36 7 -76l10 -80q19 35 28.5 75t7.5 77q0 12 -3 30.5t-9 37t-14.5 35.5t-19.5 26zM124 546q-5 4 -5 9t3 8.5t8 4t10 -3.5q15 -16 29 -32.5t30 -31.5q4 -5 3.5 -10t-4 -8t-8.5 -3t-9 5
q-13 13 -26.5 27.5t-30.5 34.5z" />
    <glyph glyph-name="Uacute" unicode="&#xda;" horiz-adv-x="420" 
d="M28 414q-5 -11 -15.5 -9t-8.5 15q3 11 11 16t18 5t20.5 -4.5t17.5 -13.5q11 -14 15.5 -38.5t5 -56t-1 -66.5t-2.5 -68t0 -62.5t7 -49.5q7 -24 22.5 -33t34.5 -7.5t40 10.5t41 22.5t36.5 28t25.5 26.5q-6 48 -11 94t-7 94q0 17 -1 38t-0.5 41.5t3.5 38t9 28.5q7 10 17 6
q18 -8 32 -27t23 -42.5t13 -48.5t3 -43q-1 -51 -12 -95t-43 -89q5 -33 8.5 -55t6.5 -38.5t6 -30t8 -28.5q2 -6 -0.5 -10t-6.5 -5.5t-8.5 0t-7.5 7.5q-10 35 -15.5 65t-12.5 69q-15 -18 -34 -32.5t-39.5 -25.5t-41 -17t-38.5 -6q-43 0 -61.5 29t-22.5 72.5t0 95t5.5 96
t-5.5 75t-33 32.5q0 -1 -0.5 -1.5t-0.5 -1.5zM306 441q-6 -23 -7.5 -55t0.5 -70q2 -36 7 -76l10 -80q19 35 28.5 75t7.5 77q0 12 -3 30.5t-9 37t-14.5 35.5t-19.5 26zM210 583q3 6 8 7t9 -0.5t5.5 -5.5t-1.5 -10q-15 -29 -34 -52t-42 -46q-9 -5 -15.5 1.5t-1.5 15.5
q21 23 39 43.5t33 46.5z" />
    <glyph glyph-name="Ucircumflex" unicode="&#xdb;" horiz-adv-x="420" 
d="M28 414q-5 -11 -15.5 -9t-8.5 15q3 11 11 16t18 5t20.5 -4.5t17.5 -13.5q11 -14 15.5 -38.5t5 -56t-1 -66.5t-2.5 -68t0 -62.5t7 -49.5q7 -24 22.5 -33t34.5 -7.5t40 10.5t41 22.5t36.5 28t25.5 26.5q-6 48 -11 94t-7 94q0 17 -1 38t-0.5 41.5t3.5 38t9 28.5q7 10 17 6
q18 -8 32 -27t23 -42.5t13 -48.5t3 -43q-1 -51 -12 -95t-43 -89q5 -33 8.5 -55t6.5 -38.5t6 -30t8 -28.5q2 -6 -0.5 -10t-6.5 -5.5t-8.5 0t-7.5 7.5q-10 35 -15.5 65t-12.5 69q-15 -18 -34 -32.5t-39.5 -25.5t-41 -17t-38.5 -6q-43 0 -61.5 29t-22.5 72.5t0 95t5.5 96
t-5.5 75t-33 32.5q0 -1 -0.5 -1.5t-0.5 -1.5zM306 441q-6 -23 -7.5 -55t0.5 -70q2 -36 7 -76l10 -80q19 35 28.5 75t7.5 77q0 12 -3 30.5t-9 37t-14.5 35.5t-19.5 26zM146 481q-3 -4 -8 -5t-9 0.5t-6 5t0 8.5q5 10 11 25t12 29.5t12 25t12 12.5q5 1 9 1t9 -5q8 -8 16 -21.5
t14.5 -26.5t11 -23t5.5 -13q4 -12 -4.5 -15.5t-13.5 3.5q-8 12 -17.5 32t-21.5 40q-8 -14 -14.5 -32.5t-17.5 -40.5z" />
    <glyph glyph-name="Udieresis" unicode="&#xdc;" horiz-adv-x="420" 
d="M28 414q-5 -11 -15.5 -9t-8.5 15q3 11 11 16t18 5t20.5 -4.5t17.5 -13.5q11 -14 15.5 -38.5t5 -56t-1 -66.5t-2.5 -68t0 -62.5t7 -49.5q7 -24 22.5 -33t34.5 -7.5t40 10.5t41 22.5t36.5 28t25.5 26.5q-6 48 -11 94t-7 94q0 17 -1 38t-0.5 41.5t3.5 38t9 28.5q7 10 17 6
q18 -8 32 -27t23 -42.5t13 -48.5t3 -43q-1 -51 -12 -95t-43 -89q5 -33 8.5 -55t6.5 -38.5t6 -30t8 -28.5q2 -6 -0.5 -10t-6.5 -5.5t-8.5 0t-7.5 7.5q-10 35 -15.5 65t-12.5 69q-15 -18 -34 -32.5t-39.5 -25.5t-41 -17t-38.5 -6q-43 0 -61.5 29t-22.5 72.5t0 95t5.5 96
t-5.5 75t-33 32.5q0 -1 -0.5 -1.5t-0.5 -1.5zM306 441q-6 -23 -7.5 -55t0.5 -70q2 -36 7 -76l10 -80q19 35 28.5 75t7.5 77q0 12 -3 30.5t-9 37t-14.5 35.5t-19.5 26zM125 518q1 10 7 14.5t12 3.5t11 -6t5 -14q-2 -8 -7 -11.5t-10.5 -3.5t-11 4t-6.5 12v1zM217 531
q6 -7 4.5 -14t-6 -11.5t-11 -4.5t-10.5 7q-8 13 2 21.5t21 1.5z" />
    <glyph glyph-name="Yacute" unicode="&#xdd;" horiz-adv-x="515" 
d="M258 42q38 16 67 52t50 78l19 45q-2 9 -5 29t-6 44.5t-5 51t0 48.5t8.5 37.5t19.5 17.5q2 0 3.5 0.5t3.5 0.5q17 3 28 -8q0 -1 1 -1l7 -8l-1 -1q9 -15 10.5 -35.5t-1 -40.5t-6.5 -36.5t-6 -24.5l-13 -40q-5 -19 -12 -34q-2 -2 -2 -4q8 -42 13.5 -71t9 -50t6 -37.5
t4.5 -33.5l39 8q11 0 13.5 -9t-7.5 -15l-41 -9l2 -33v-34v-16q-1 -5 -1 -8.5v-8.5l-4 -32l-3 -15l-2 -8q-2 -5 -3 -11t-3 -11q-4 -12 -9 -23.5t-12 -21.5q-2 -4 -8 -12l-9 -10l-9 -10l-17 -12l-12 -7q-31 -16 -72 -14t-79.5 17t-68 40t-37.5 55.5t11.5 63.5t78.5 64
q53 28 113.5 40.5t120.5 26.5q-5 44 -13.5 84.5t-15.5 75.5q0 -1 -0.5 -1t-0.5 -1l-1 2l-16 -35q-14 -23 -30 -45t-35 -39q-6 -5 -16.5 -13t-23.5 -16h1q-12 -8 -28 -14q-4 0 -6.5 0.5t-6.5 4.5q-23 25 -34 65.5t-18 85.5q-31 -13 -64.5 -4.5t-60.5 31t-44 55.5t-15 68
q2 39 15 65.5t32 40.5t41.5 14.5t43 -12.5t36 -40.5t21.5 -69.5q5 -37 11 -81t13.5 -84.5t16.5 -71.5t18 -41q2 0 3 0.5t3 0.5v1zM356 -254q27 14 44 40t26 59t10.5 71t-2.5 76q-48 -8 -106.5 -21.5t-109.5 -36.5q-45 -21 -64.5 -44t-20.5 -45.5t13 -43t37.5 -36t53 -24.5
t58.5 -9h5h3q28 1 53 14zM170 317q-5 47 -27.5 72t-48 26.5t-46 -22t-21.5 -73.5q-1 -27 13 -54.5t36.5 -47t51 -27.5t57.5 4zM402 367v-32l2 -28v-7q1 -3 1 -9l3 -23q1 -2 1 -6q0 -1 0.5 -1t0.5 -1v1q1 1 1 2l3 9q2 4 2 7q1 1 1 3l1 2l2 9l2 4q4 13 7.5 29.5t5.5 32.5t1 30
t-7 22q-2 4 -4 5q-3 3 -11 5q-1 0 -1.5 -0.5t-1.5 -0.5l-3 -4q-2 -4 -2 -7q-1 -3 -1.5 -5.5t-0.5 -5.5q0 -2 -0.5 -2t-0.5 -2q-1 -5 -1 -10v-9v-8zM302 585q3 6 8 7t9 -0.5t5.5 -5.5t-1.5 -10q-15 -29 -34 -52t-42 -46q-9 -5 -15.5 1.5t-1.5 15.5q21 23 39 43.5t33 46.5z
" />
    <glyph glyph-name="Thorn" unicode="&#xde;" horiz-adv-x="262" 
d="M23 467q1 6 4.5 9t8 2.5t8 -4.5t3.5 -10q-1 -57 -1 -103t1 -88q27 1 59.5 -2.5t61 -13.5t48.5 -27t22 -42q1 -21 -14 -40t-41 -32.5t-61 -20.5t-74 -4v-112q-5 -10 -13.5 -9t-10.5 12v112q-5 0 -7 1q-12 7 -8 16.5t15 6.5v65t-1 62q-1 -1 -4 -1q-13 -2 -15 8t9 16
q6 2 10 2q-1 44 -1 91t1 106zM211 189q-2 19 -20.5 31t-43.5 18.5t-52 8.5t-48 1q0 -32 0.5 -66.5t0.5 -68.5q22 -2 51 2t55 14t43 25t14 35z" />
    <glyph glyph-name="germandbls" unicode="&#xdf;" horiz-adv-x="289" 
d="M49 -27q-3 -10 -12 -9t-12 12q5 49 3 97.5t-4 98.5q0 24 -1 63t2.5 80.5t15 77.5t36.5 53q16 10 33 13t31.5 -1.5t25.5 -17t15 -32.5q3 -16 -2 -35.5t-13.5 -40t-19 -41t-19 -39t-13.5 -34.5t-2 -27q4 -12 23.5 -19t43 -15t46 -19t32.5 -31q9 -17 1.5 -37.5t-23.5 -38.5
t-36.5 -29.5t-37.5 -11.5q-12 2 -12.5 13t12.5 11t29.5 10.5t28.5 26t16 32t-7 28.5q-13 13 -33.5 18.5t-41.5 11t-39 14.5t-26 30q-7 23 6 51.5t29.5 60t27 64.5t-1.5 65q-28 12 -45.5 6t-28 -21.5t-15.5 -38t-8 -44.5q-6 -44 -6 -88.5t1.5 -89l3 -89t-2.5 -88.5z" />
    <glyph glyph-name="agrave" unicode="&#xe0;" horiz-adv-x="293" 
d="M212 48q15 2 26.5 11t21 21.5t17.5 28t16 30.5q8 14 14 28.5t10 26.5q7 13 15 10t8 -16q-5 -20 -17.5 -45t-29.5 -53q-18 -28 -36.5 -47t-41.5 -19q-35 0 -54.5 34.5t-29.5 83.5q-13 -37 -28 -64q-13 -23 -30 -40t-34 -11q-13 4 -21.5 22t-10.5 43t3 54.5t19 58.5
q11 23 30.5 38t40 17.5t36.5 -10t21 -44.5q0 -4 -1.5 -6.5t-3.5 -4.5q2 -21 7.5 -47t13.5 -49t18 -38t21 -13zM80 92q15 31 25 64t20 71q-6 8 -14.5 9.5t-18 -1.5t-18.5 -9.5t-15 -15.5q-8 -12 -14 -33.5t-9 -45t-2.5 -44.5t5.5 -30t15 -2.5t26 37.5zM59 356q-5 4 -5 9
t3 8.5t8 4t10 -3.5q15 -16 29 -32.5t30 -31.5q4 -5 3.5 -10t-4 -8t-8.5 -3t-9 5q-13 13 -26.5 27.5t-30.5 34.5z" />
    <glyph glyph-name="aacute" unicode="&#xe1;" horiz-adv-x="293" 
d="M212 48q15 2 26.5 11t21 21.5t17.5 28t16 30.5q8 14 14 28.5t10 26.5q7 13 15 10t8 -16q-5 -20 -17.5 -45t-29.5 -53q-18 -28 -36.5 -47t-41.5 -19q-35 0 -54.5 34.5t-29.5 83.5q-13 -37 -28 -64q-13 -23 -30 -40t-34 -11q-13 4 -21.5 22t-10.5 43t3 54.5t19 58.5
q11 23 30.5 38t40 17.5t36.5 -10t21 -44.5q0 -4 -1.5 -6.5t-3.5 -4.5q2 -21 7.5 -47t13.5 -49t18 -38t21 -13zM80 92q15 31 25 64t20 71q-6 8 -14.5 9.5t-18 -1.5t-18.5 -9.5t-15 -15.5q-8 -12 -14 -33.5t-9 -45t-2.5 -44.5t5.5 -30t15 -2.5t26 37.5zM104 387q3 6 8 7
t9 -0.5t5.5 -5.5t-1.5 -10q-15 -29 -34 -52t-42 -46q-9 -5 -15.5 1.5t-1.5 15.5q21 23 39 43.5t33 46.5z" />
    <glyph glyph-name="acircumflex" unicode="&#xe2;" horiz-adv-x="293" 
d="M212 48q15 2 26.5 11t21 21.5t17.5 28t16 30.5q8 14 14 28.5t10 26.5q7 13 15 10t8 -16q-5 -20 -17.5 -45t-29.5 -53q-18 -28 -36.5 -47t-41.5 -19q-35 0 -54.5 34.5t-29.5 83.5q-13 -37 -28 -64q-13 -23 -30 -40t-34 -11q-13 4 -21.5 22t-10.5 43t3 54.5t19 58.5
q11 23 30.5 38t40 17.5t36.5 -10t21 -44.5q0 -4 -1.5 -6.5t-3.5 -4.5q2 -21 7.5 -47t13.5 -49t18 -38t21 -13zM80 92q15 31 25 64t20 71q-6 8 -14.5 9.5t-18 -1.5t-18.5 -9.5t-15 -15.5q-8 -12 -14 -33.5t-9 -45t-2.5 -44.5t5.5 -30t15 -2.5t26 37.5zM60 296q-3 -4 -8 -5
t-9 0.5t-6 5t0 8.5q5 10 11 25t12 29.5t12 25t12 12.5q5 1 9 1t9 -5q8 -8 16 -21.5t14.5 -26.5t11 -23t5.5 -13q4 -12 -4.5 -15.5t-13.5 3.5q-8 12 -17.5 32t-21.5 40q-8 -14 -14.5 -32.5t-17.5 -40.5z" />
    <glyph glyph-name="atilde" unicode="&#xe3;" horiz-adv-x="293" 
d="M212 48q15 2 26.5 11t21 21.5t17.5 28t16 30.5q8 14 14 28.5t10 26.5q7 13 15 10t8 -16q-5 -20 -17.5 -45t-29.5 -53q-18 -28 -36.5 -47t-41.5 -19q-35 0 -54.5 34.5t-29.5 83.5q-13 -37 -28 -64q-13 -23 -30 -40t-34 -11q-13 4 -21.5 22t-10.5 43t3 54.5t19 58.5
q11 23 30.5 38t40 17.5t36.5 -10t21 -44.5q0 -4 -1.5 -6.5t-3.5 -4.5q2 -21 7.5 -47t13.5 -49t18 -38t21 -13zM80 92q15 31 25 64t20 71q-6 8 -14.5 9.5t-18 -1.5t-18.5 -9.5t-15 -15.5q-8 -12 -14 -33.5t-9 -45t-2.5 -44.5t5.5 -30t15 -2.5t26 37.5zM56 308
q-5 -11 -15.5 -9t-8.5 15q3 11 11 22t17 17q14 10 23 7t15 -11.5t10.5 -18.5t9 -14t10 1t13.5 27q6 10 15 7.5t9 -13.5q-20 -53 -42.5 -49.5t-44.5 47.5q-8 -3 -14 -11.5t-8 -16.5z" />
    <glyph glyph-name="adieresis" unicode="&#xe4;" horiz-adv-x="293" 
d="M212 48q15 2 26.5 11t21 21.5t17.5 28t16 30.5q8 14 14 28.5t10 26.5q7 13 15 10t8 -16q-5 -20 -17.5 -45t-29.5 -53q-18 -28 -36.5 -47t-41.5 -19q-35 0 -54.5 34.5t-29.5 83.5q-13 -37 -28 -64q-13 -23 -30 -40t-34 -11q-13 4 -21.5 22t-10.5 43t3 54.5t19 58.5
q11 23 30.5 38t40 17.5t36.5 -10t21 -44.5q0 -4 -1.5 -6.5t-3.5 -4.5q2 -21 7.5 -47t13.5 -49t18 -38t21 -13zM80 92q15 31 25 64t20 71q-6 8 -14.5 9.5t-18 -1.5t-18.5 -9.5t-15 -15.5q-8 -12 -14 -33.5t-9 -45t-2.5 -44.5t5.5 -30t15 -2.5t26 37.5zM53 324q1 10 7 14.5
t12 3.5t11 -6t5 -14q-2 -8 -7 -11.5t-10.5 -3.5t-11 4t-6.5 12v1zM145 337q6 -7 4.5 -14t-6 -11.5t-11 -4.5t-10.5 7q-8 13 2 21.5t21 1.5z" />
    <glyph glyph-name="aring" unicode="&#xe5;" horiz-adv-x="293" 
d="M212 48q15 2 26.5 11t21 21.5t17.5 28t16 30.5q8 14 14 28.5t10 26.5q7 13 15 10t8 -16q-5 -20 -17.5 -45t-29.5 -53q-18 -28 -36.5 -47t-41.5 -19q-35 0 -54.5 34.5t-29.5 83.5q-13 -37 -28 -64q-13 -23 -30 -40t-34 -11q-13 4 -21.5 22t-10.5 43t3 54.5t19 58.5
q11 23 30.5 38t40 17.5t36.5 -10t21 -44.5q0 -4 -1.5 -6.5t-3.5 -4.5q2 -21 7.5 -47t13.5 -49t18 -38t21 -13zM80 92q15 31 25 64t20 71q-6 8 -14.5 9.5t-18 -1.5t-18.5 -9.5t-15 -15.5q-8 -12 -14 -33.5t-9 -45t-2.5 -44.5t5.5 -30t15 -2.5t26 37.5zM95 383q7 0 12 -5
q24 -7 33 -22t5 -30t-21 -26t-44 -9q-21 1 -26.5 14t-1 29.5t16 31t26.5 17.5zM83 315q10 -3 20.5 1.5t15.5 12t0.5 15.5t-25.5 11q-6 -3 -11.5 -8.5t-8 -11.5t-1 -11.5t9.5 -8.5z" />
    <glyph glyph-name="ae" unicode="&#xe6;" horiz-adv-x="377" 
d="M377 89q-11 -17 -27.5 -34t-37 -30.5t-43.5 -20t-47 -0.5q-20 4 -32 26q-23 12 -37 42.5t-22 69.5q-13 -37 -28 -64q-13 -23 -30 -40t-34 -11q-13 4 -21.5 22t-10.5 43t3 54.5t19 58.5q11 23 30.5 38t40 17.5t36.5 -10t21 -44.5q0 -4 -1.5 -6.5t-3.5 -4.5q2 -20 7 -45.5
t13 -48.5q-2 17 -0.5 35t4.5 35q6 35 18.5 54.5t27 26t28 2t22 -18t9.5 -34.5t-11 -47q-11 -24 -30.5 -47t-36.5 -34q4 -17 11 -28t18 -15q21 -7 43 2.5t42 27.5t36 39.5t24 39.5q7 14 14 28.5t11 26.5q6 13 14.5 10t8.5 -16q-6 -20 -18.5 -46t-29.5 -53zM80 92q15 31 25 64
t20 71q-6 8 -14.5 9.5t-18 -1.5t-18.5 -9.5t-15 -15.5q-8 -12 -14 -33.5t-9 -45t-2.5 -44.5t5.5 -30t15 -2.5t26 37.5zM248 164q10 22 7 41t-12 24.5t-20.5 -7.5t-18.5 -53q-3 -17 -4.5 -34t-0.5 -34q13 10 26.5 26.5t22.5 36.5z" />
    <glyph glyph-name="ccedilla" unicode="&#xe7;" horiz-adv-x="218" 
d="M96 8q-3 -14 -6 -30t2 -21q6 -6 15.5 -8t19.5 -3t20 -3t17 -9q11 -11 5 -22.5t-19.5 -21t-29.5 -16.5t-24 -8q-12 -2 -14.5 8.5t8.5 15.5q12 2 29.5 9.5t24.5 17.5q-10 7 -23 8t-25 4q-15 3 -21.5 11.5t-8 20t0.5 25t5 25.5zM265 188q-9 -28 -26.5 -62.5t-41.5 -64.5
t-54.5 -49.5t-65.5 -18.5q-30 1 -51 26.5t-21 86.5q0 15 4 36.5t12 43t20 38t29 20.5q18 5 33 -11.5t19 -49.5q0 -6 -3.5 -9.5t-8 -3.5t-8 3t-4.5 9q-5 44 -24 34q-12 -6 -20.5 -19t-13.5 -28.5t-7 -31.5t-2 -28q2 -44 14.5 -65.5t32.5 -24.5q28 -4 54.5 14.5t48 46.5
t37.5 59.5t24 54.5q7 13 17 9.5t6 -15.5z" />
    <glyph glyph-name="egrave" unicode="&#xe8;" horiz-adv-x="217" 
d="M217 89q-11 -17 -27.5 -34t-37 -30.5t-43.5 -20t-47 -0.5q-17 4 -28 20.5t-16.5 40.5t-6 52t4.5 54q6 35 18.5 54.5t27 26t28 2t22 -18t9 -34.5t-10.5 -47q-11 -24 -30.5 -46.5t-37.5 -33.5q4 -17 11 -28.5t18 -15.5q21 -7 43.5 2.5t42.5 27.5t35.5 39.5t24.5 39.5
q7 14 13.5 28.5t10.5 26.5q7 13 15 10t8 -16q-5 -20 -17.5 -46t-29.5 -53zM88 164q10 22 7 41t-12 24.5t-21 -7.5t-19 -53q-3 -17 -4.5 -34t0.5 -34q12 10 26 26.5t23 36.5zM48 355q-5 4 -5 9t3 8.5t8 4t10 -3.5q15 -16 29 -32.5t30 -31.5q4 -5 3.5 -10t-4 -8t-8.5 -3t-9 5
q-13 13 -26.5 27.5t-30.5 34.5z" />
    <glyph glyph-name="eacute" unicode="&#xe9;" horiz-adv-x="217" 
d="M217 89q-11 -17 -27.5 -34t-37 -30.5t-43.5 -20t-47 -0.5q-17 4 -28 20.5t-16.5 40.5t-6 52t4.5 54q6 35 18.5 54.5t27 26t28 2t22 -18t9 -34.5t-10.5 -47q-11 -24 -30.5 -46.5t-37.5 -33.5q4 -17 11 -28.5t18 -15.5q21 -7 43.5 2.5t42.5 27.5t35.5 39.5t24.5 39.5
q7 14 13.5 28.5t10.5 26.5q7 13 15 10t8 -16q-5 -20 -17.5 -46t-29.5 -53zM88 164q10 22 7 41t-12 24.5t-21 -7.5t-19 -53q-3 -17 -4.5 -34t0.5 -34q12 10 26 26.5t23 36.5zM88 381q3 6 8 7t9 -0.5t5.5 -5.5t-1.5 -10q-15 -29 -34 -52t-42 -46q-9 -5 -15.5 1.5t-1.5 15.5
q21 23 39 43.5t33 46.5z" />
    <glyph glyph-name="ecircumflex" unicode="&#xea;" horiz-adv-x="217" 
d="M217 89q-11 -17 -27.5 -34t-37 -30.5t-43.5 -20t-47 -0.5q-17 4 -28 20.5t-16.5 40.5t-6 52t4.5 54q6 35 18.5 54.5t27 26t28 2t22 -18t9 -34.5t-10.5 -47q-11 -24 -30.5 -46.5t-37.5 -33.5q4 -17 11 -28.5t18 -15.5q21 -7 43.5 2.5t42.5 27.5t35.5 39.5t24.5 39.5
q7 14 13.5 28.5t10.5 26.5q7 13 15 10t8 -16q-5 -20 -17.5 -46t-29.5 -53zM88 164q10 22 7 41t-12 24.5t-21 -7.5t-19 -53q-3 -17 -4.5 -34t0.5 -34q12 10 26 26.5t23 36.5zM46 292q-3 -4 -8 -5t-9 0.5t-6 5t0 8.5q5 10 11 25t12 29.5t12 25t12 12.5q5 1 9 1t9 -5
q8 -8 16 -21.5t14.5 -26.5t11 -23t5.5 -13q4 -12 -4.5 -15.5t-13.5 3.5q-8 12 -17.5 32t-21.5 40q-8 -14 -14.5 -32.5t-17.5 -40.5z" />
    <glyph glyph-name="edieresis" unicode="&#xeb;" horiz-adv-x="217" 
d="M217 89q-11 -17 -27.5 -34t-37 -30.5t-43.5 -20t-47 -0.5q-17 4 -28 20.5t-16.5 40.5t-6 52t4.5 54q6 35 18.5 54.5t27 26t28 2t22 -18t9 -34.5t-10.5 -47q-11 -24 -30.5 -46.5t-37.5 -33.5q4 -17 11 -28.5t18 -15.5q21 -7 43.5 2.5t42.5 27.5t35.5 39.5t24.5 39.5
q7 14 13.5 28.5t10.5 26.5q7 13 15 10t8 -16q-5 -20 -17.5 -46t-29.5 -53zM88 164q10 22 7 41t-12 24.5t-21 -7.5t-19 -53q-3 -17 -4.5 -34t0.5 -34q12 10 26 26.5t23 36.5zM34 325q1 10 7 14.5t12 3.5t11 -6t5 -14q-2 -8 -7 -11.5t-10.5 -3.5t-11 4t-6.5 12v1zM126 338
q6 -7 4.5 -14t-6 -11.5t-11 -4.5t-10.5 7q-8 13 2 21.5t21 1.5z" />
    <glyph glyph-name="igrave" unicode="&#xec;" horiz-adv-x="170" 
d="M70 29q10 -5 26 9t31 33.5t27 39.5t16 28q6 14 13 28.5t11 26.5q7 13 15 10t8 -16q-5 -20 -17.5 -46t-29.5 -53q-6 -9 -18.5 -25.5t-28 -32t-32.5 -25t-32 -5.5q-11 3 -17.5 18.5t-10.5 36.5t-5.5 44t-1.5 41q-1 26 -0.5 52.5t0.5 44.5q1 6 5 9t8.5 2.5t8 -4t3.5 -9.5
q0 -8 -0.5 -28.5t-0.5 -43.5q1 -17 2.5 -39.5t4 -43t6 -35.5t9.5 -17zM6 354q-5 4 -5 9t3 8.5t8 4t10 -3.5q15 -16 29 -32.5t30 -31.5q4 -5 3.5 -10t-4 -8t-8.5 -3t-9 5q-13 13 -26.5 27.5t-30.5 34.5z" />
    <glyph glyph-name="iacute" unicode="&#xed;" horiz-adv-x="170" 
d="M70 29q10 -5 26 9t31 33.5t27 39.5t16 28q6 14 13 28.5t11 26.5q7 13 15 10t8 -16q-5 -20 -17.5 -46t-29.5 -53q-6 -9 -18.5 -25.5t-28 -32t-32.5 -25t-32 -5.5q-11 3 -17.5 18.5t-10.5 36.5t-5.5 44t-1.5 41q-1 26 -0.5 52.5t0.5 44.5q1 6 5 9t8.5 2.5t8 -4t3.5 -9.5
q0 -8 -0.5 -28.5t-0.5 -43.5q1 -17 2.5 -39.5t4 -43t6 -35.5t9.5 -17zM61 399q3 6 8 7t9 -0.5t5.5 -5.5t-1.5 -10q-15 -29 -34 -52t-42 -46q-9 -5 -15.5 1.5t-1.5 15.5q21 23 39 43.5t33 46.5z" />
    <glyph glyph-name="icircumflex" unicode="&#xee;" horiz-adv-x="170" 
d="M70 29q10 -5 26 9t31 33.5t27 39.5t16 28q6 14 13 28.5t11 26.5q7 13 15 10t8 -16q-5 -20 -17.5 -46t-29.5 -53q-6 -9 -18.5 -25.5t-28 -32t-32.5 -25t-32 -5.5q-11 3 -17.5 18.5t-10.5 36.5t-5.5 44t-1.5 41q-1 26 -0.5 52.5t0.5 44.5q1 6 5 9t8.5 2.5t8 -4t3.5 -9.5
q0 -8 -0.5 -28.5t-0.5 -43.5q1 -17 2.5 -39.5t4 -43t6 -35.5t9.5 -17zM8 298q-3 -4 -8 -5t-9 0.5t-6 5t0 8.5q5 10 11 25t12 29.5t12 25t12 12.5q5 1 9 1t9 -5q8 -8 16 -21.5t14.5 -26.5t11 -23t5.5 -13q4 -12 -4.5 -15.5t-13.5 3.5q-8 12 -17.5 32t-21.5 40
q-8 -14 -14.5 -32.5t-17.5 -40.5z" />
    <glyph glyph-name="idieresis" unicode="&#xef;" horiz-adv-x="170" 
d="M70 29q10 -5 26 9t31 33.5t27 39.5t16 28q6 14 13 28.5t11 26.5q7 13 15 10t8 -16q-5 -20 -17.5 -46t-29.5 -53q-6 -9 -18.5 -25.5t-28 -32t-32.5 -25t-32 -5.5q-11 3 -17.5 18.5t-10.5 36.5t-5.5 44t-1.5 41q-1 26 -0.5 52.5t0.5 44.5q1 6 5 9t8.5 2.5t8 -4t3.5 -9.5
q0 -8 -0.5 -28.5t-0.5 -43.5q1 -17 2.5 -39.5t4 -43t6 -35.5t9.5 -17zM-10 335q1 10 7 14.5t12 3.5t11 -6t5 -14q-2 -8 -7 -11.5t-10.5 -3.5t-11 4t-6.5 12v1zM82 348q6 -7 4.5 -14t-6 -11.5t-11 -4.5t-10.5 7q-8 13 2 21.5t21 1.5z" />
    <glyph glyph-name="eth" unicode="&#xf0;" horiz-adv-x="286" 
d="M-1 292q-13 -2 -15 8.5t9 15.5q20 5 36.5 8t31.5 7q-7 42 -8 79t4 63q10 13 23 1q0 -1 0.5 -1.5t0.5 -2.5l1 2v-2q6 -14 13 -49t15 -79l99 26q11 0 13.5 -9t-7.5 -15l-101 -26q7 -44 12.5 -85.5t7.5 -70.5q4 -21 7 -38t3.5 -26.5t-2 -10t-9.5 10.5l-4 -17q-16 43 -19 85
l21 8q1 -8 6.5 -30t14 -47t17.5 -45t17 -23q10 -5 25.5 9t31 33.5t27.5 39.5t16 28q6 14 13 28.5t11 26.5q6 13 14.5 10t8.5 -16q-5 -20 -17.5 -46t-29.5 -53q-6 -9 -18.5 -26t-28 -32.5t-32.5 -25t-32 -4.5q-10 3 -22.5 26t-23.5 54q-5 -16 -13 -29.5t-20 -18.5
q-14 -6 -24 -2t-18 12.5t-13.5 20t-9.5 22.5q-11 35 -12.5 72.5t12.5 70.5q8 17 21 18t28 -7q-9 33 -15 66q-14 -3 -30 -6.5t-36 -7.5zM113 137q-6 17 -12.5 34t-11.5 34q-5 6 -12 10.5t-13.5 4.5t-12 -4.5t-6.5 -16.5q-3 -17 -3 -37t3.5 -39.5t11 -37.5t19.5 -31q5 1 12 1
q13 16 18.5 37t6.5 45zM88 312q-1 0 -1 -0.5t-1 -0.5q3 -19 8 -37.5t11 -37.5zM80 351q0 -4 0.5 -8t0.5 -8q1 0 1 0.5t1 0.5z" />
    <glyph glyph-name="ntilde" unicode="&#xf1;" horiz-adv-x="340" 
d="M299 37q-33 -33 -57 -26q-14 3 -23 16.5t-15 33t-9.5 41t-7.5 40.5t-8 32.5t-11 16.5q-10 3 -20.5 -9t-21 -32t-20.5 -44t-17.5 -46t-12.5 -37t-6 -17q-4 -9 -13.5 -11t-14.5 9q-6 22 -10.5 53.5t-6.5 64.5t-2 63t2 51q4 16 14 12.5t12 -13.5q-3 -43 -2.5 -89t8.5 -91
q2 8 8 24t15 35.5t20 39.5t23.5 36t26 25t26.5 6q10 -2 17 -16t12.5 -34t9 -43t8 -42.5t10 -32.5t14.5 -14q8 -2 17 3.5t19 15.5q19 21 35 46t21 35q6 14 13 28.5t11 26.5q6 13 14.5 10t8.5 -16q-5 -20 -17.5 -46t-29.5 -53q-5 -8 -15.5 -23.5t-24.5 -28.5zM112 280
q-5 -11 -15.5 -9t-8.5 15q3 11 11 22t17 17q14 10 23 7t15 -11.5t10.5 -18.5t9 -14t10 1t13.5 27q6 10 15 7.5t9 -13.5q-20 -53 -42.5 -49.5t-44.5 47.5q-8 -3 -14 -11.5t-8 -16.5z" />
    <glyph glyph-name="ograve" unicode="&#xf2;" horiz-adv-x="232" 
d="M71 256q11 0 13 -10q23 3 45 -11t34 -34q20 -35 20 -77q26 8 43.5 26t29.5 44q6 10 14.5 8t8.5 -14q-11 -31 -36.5 -56.5t-60.5 -33.5q-5 -25 -17.5 -45.5t-35.5 -29.5q-29 -12 -51 -2.5t-37 32t-21 52.5t-3 60t16.5 55t37.5 36zM121 46q15 6 23.5 18.5t12.5 29.5
q-20 0 -38.5 8t-33 22t-23.5 33t-10 42q-9 -24 -9 -55t8.5 -56t26 -39t43.5 -3zM139 188q-12 17 -25 24t-33 7q-7 -19 -2.5 -36.5t16.5 -31t29 -21.5t35 -9q-2 39 -20 67zM59 354q-5 4 -5 9t3 8.5t8 4t10 -3.5q15 -16 29 -32.5t30 -31.5q4 -5 3.5 -10t-4 -8t-8.5 -3t-9 5
q-13 13 -26.5 27.5t-30.5 34.5z" />
    <glyph glyph-name="oacute" unicode="&#xf3;" horiz-adv-x="232" 
d="M71 256q11 0 13 -10q23 3 45 -11t34 -34q20 -35 20 -77q26 8 43.5 26t29.5 44q6 10 14.5 8t8.5 -14q-11 -31 -36.5 -56.5t-60.5 -33.5q-5 -25 -17.5 -45.5t-35.5 -29.5q-29 -12 -51 -2.5t-37 32t-21 52.5t-3 60t16.5 55t37.5 36zM121 46q15 6 23.5 18.5t12.5 29.5
q-20 0 -38.5 8t-33 22t-23.5 33t-10 42q-9 -24 -9 -55t8.5 -56t26 -39t43.5 -3zM139 188q-12 17 -25 24t-33 7q-7 -19 -2.5 -36.5t16.5 -31t29 -21.5t35 -9q-2 39 -20 67zM103 389q3 6 8 7t9 -0.5t5.5 -5.5t-1.5 -10q-15 -29 -34 -52t-42 -46q-9 -5 -15.5 1.5t-1.5 15.5
q21 23 39 43.5t33 46.5z" />
    <glyph glyph-name="ocircumflex" unicode="&#xf4;" horiz-adv-x="232" 
d="M71 256q11 0 13 -10q23 3 45 -11t34 -34q20 -35 20 -77q26 8 43.5 26t29.5 44q6 10 14.5 8t8.5 -14q-11 -31 -36.5 -56.5t-60.5 -33.5q-5 -25 -17.5 -45.5t-35.5 -29.5q-29 -12 -51 -2.5t-37 32t-21 52.5t-3 60t16.5 55t37.5 36zM121 46q15 6 23.5 18.5t12.5 29.5
q-20 0 -38.5 8t-33 22t-23.5 33t-10 42q-9 -24 -9 -55t8.5 -56t26 -39t43.5 -3zM139 188q-12 17 -25 24t-33 7q-7 -19 -2.5 -36.5t16.5 -31t29 -21.5t35 -9q-2 39 -20 67zM55 296q-3 -4 -8 -5t-9 0.5t-6 5t0 8.5q5 10 11 25t12 29.5t12 25t12 12.5q5 1 9 1t9 -5
q8 -8 16 -21.5t14.5 -26.5t11 -23t5.5 -13q4 -12 -4.5 -15.5t-13.5 3.5q-8 12 -17.5 32t-21.5 40q-8 -14 -14.5 -32.5t-17.5 -40.5z" />
    <glyph glyph-name="otilde" unicode="&#xf5;" horiz-adv-x="232" 
d="M71 256q11 0 13 -10q23 3 45 -11t34 -34q20 -35 20 -77q26 8 43.5 26t29.5 44q6 10 14.5 8t8.5 -14q-11 -31 -36.5 -56.5t-60.5 -33.5q-5 -25 -17.5 -45.5t-35.5 -29.5q-29 -12 -51 -2.5t-37 32t-21 52.5t-3 60t16.5 55t37.5 36zM121 46q15 6 23.5 18.5t12.5 29.5
q-20 0 -38.5 8t-33 22t-23.5 33t-10 42q-9 -24 -9 -55t8.5 -56t26 -39t43.5 -3zM139 188q-12 17 -25 24t-33 7q-7 -19 -2.5 -36.5t16.5 -31t29 -21.5t35 -9q-2 39 -20 67zM74 308q-5 -11 -15.5 -9t-8.5 15q3 11 11 22t17 17q14 10 23 7t15 -11.5t10.5 -18.5t9 -14t10 1
t13.5 27q6 10 15 7.5t9 -13.5q-20 -53 -42.5 -49.5t-44.5 47.5q-8 -3 -14 -11.5t-8 -16.5z" />
    <glyph glyph-name="odieresis" unicode="&#xf6;" horiz-adv-x="232" 
d="M71 256q11 0 13 -10q23 3 45 -11t34 -34q20 -35 20 -77q26 8 43.5 26t29.5 44q6 10 14.5 8t8.5 -14q-11 -31 -36.5 -56.5t-60.5 -33.5q-5 -25 -17.5 -45.5t-35.5 -29.5q-29 -12 -51 -2.5t-37 32t-21 52.5t-3 60t16.5 55t37.5 36zM121 46q15 6 23.5 18.5t12.5 29.5
q-20 0 -38.5 8t-33 22t-23.5 33t-10 42q-9 -24 -9 -55t8.5 -56t26 -39t43.5 -3zM139 188q-12 17 -25 24t-33 7q-7 -19 -2.5 -36.5t16.5 -31t29 -21.5t35 -9q-2 39 -20 67zM40 319q1 10 7 14.5t12 3.5t11 -6t5 -14q-2 -8 -7 -11.5t-10.5 -3.5t-11 4t-6.5 12v1zM132 332
q6 -7 4.5 -14t-6 -11.5t-11 -4.5t-10.5 7q-8 13 2 21.5t21 1.5z" />
    <glyph glyph-name="divide" unicode="&#xf7;" horiz-adv-x="195" 
d="M25 185q-6 1 -8.5 4.5t-2.5 8t3.5 8t9.5 3.5h40.5t31.5 0.5t31.5 0.5h40.5q6 0 10 -3.5t4.5 -8t-2.5 -8t-9 -4.5h-41t-32.5 -0.5t-33 -0.5h-42.5zM80 262q1 7 5.5 10.5t9.5 2.5t9.5 -5.5t4.5 -12.5q-3 -13 -15 -13t-14 14v4zM113 131q-1 -6 -5 -9t-9.5 -2.5t-10 4
t-5.5 10.5v1q1 8 6 11.5t10 2.5t9.5 -5.5t4.5 -12.5z" />
    <glyph glyph-name="oslash" unicode="&#xf8;" horiz-adv-x="232" 
d="M134 289q6 11 15 8.5t9 -14.5q-26 -77 -54 -153t-63 -149q-5 -11 -15.5 -9t-8.5 15q36 75 63.5 150t53.5 152zM71 256q11 0 13 -10q23 3 45 -11t34 -34q20 -35 20 -77q26 8 43.5 26t29.5 44q6 10 14.5 8t8.5 -14q-11 -31 -36.5 -56.5t-60.5 -33.5q-5 -25 -17.5 -45.5
t-35.5 -29.5q-29 -12 -51 -2.5t-37 32t-21 52.5t-3 60t16.5 55t37.5 36zM121 46q15 6 23.5 18.5t12.5 29.5q-20 0 -38.5 8t-33 22t-23.5 33t-10 42q-9 -24 -9 -55t8.5 -56t26 -39t43.5 -3zM139 188q-12 17 -25 24t-33 7q-7 -19 -2.5 -36.5t16.5 -31t29 -21.5t35 -9
q-2 39 -20 67z" />
    <glyph glyph-name="ugrave" unicode="&#xf9;" 
d="M288 89q-7 -12 -20 -30.5t-29 -33t-34 -19t-36 12.5q-11 11 -18 26t-12 35l-12 -34q-2 -5 -5 -11.5t-7.5 -13t-10 -11.5t-11.5 -6q-16 -2 -27 8t-18.5 28t-12 40.5t-7 44.5t-3.5 41t-1 29q2 12 12 12t12 -10q0 -15 2 -39.5t5.5 -50t10 -48t17.5 -32.5q15 7 24.5 34.5
t15 59.5t8 62t4.5 43q0 1 0.5 1.5t0.5 1.5q1 6 5 8t8 1.5t7.5 -4.5t3.5 -10q0 -1 -0.5 -3t-0.5 -7.5t-0.5 -17t-1.5 -30.5q-1 -32 1.5 -63.5t16.5 -54.5q9 -15 20 -16t22.5 6.5t23 22t21 29.5t16.5 28.5t10 20.5q7 14 14 28.5t10 26.5q7 13 15 10t8 -16q-5 -20 -17.5 -46
t-29.5 -53zM41 321q-5 4 -5 9t3 8.5t8 4t10 -3.5q15 -16 29 -32.5t30 -31.5q4 -5 3.5 -10t-4 -8t-8.5 -3t-9 5q-13 13 -26.5 27.5t-30.5 34.5z" />
    <glyph glyph-name="uacute" unicode="&#xfa;" 
d="M288 89q-7 -12 -20 -30.5t-29 -33t-34 -19t-36 12.5q-11 11 -18 26t-12 35l-12 -34q-2 -5 -5 -11.5t-7.5 -13t-10 -11.5t-11.5 -6q-16 -2 -27 8t-18.5 28t-12 40.5t-7 44.5t-3.5 41t-1 29q2 12 12 12t12 -10q0 -15 2 -39.5t5.5 -50t10 -48t17.5 -32.5q15 7 24.5 34.5
t15 59.5t8 62t4.5 43q0 1 0.5 1.5t0.5 1.5q1 6 5 8t8 1.5t7.5 -4.5t3.5 -10q0 -1 -0.5 -3t-0.5 -7.5t-0.5 -17t-1.5 -30.5q-1 -32 1.5 -63.5t16.5 -54.5q9 -15 20 -16t22.5 6.5t23 22t21 29.5t16.5 28.5t10 20.5q7 14 14 28.5t10 26.5q7 13 15 10t8 -16q-5 -20 -17.5 -46
t-29.5 -53zM111 368q3 6 8 7t9 -0.5t5.5 -5.5t-1.5 -10q-15 -29 -34 -52t-42 -46q-9 -5 -15.5 1.5t-1.5 15.5q21 23 39 43.5t33 46.5z" />
    <glyph glyph-name="ucircumflex" unicode="&#xfb;" 
d="M288 89q-7 -12 -20 -30.5t-29 -33t-34 -19t-36 12.5q-11 11 -18 26t-12 35l-12 -34q-2 -5 -5 -11.5t-7.5 -13t-10 -11.5t-11.5 -6q-16 -2 -27 8t-18.5 28t-12 40.5t-7 44.5t-3.5 41t-1 29q2 12 12 12t12 -10q0 -15 2 -39.5t5.5 -50t10 -48t17.5 -32.5q15 7 24.5 34.5
t15 59.5t8 62t4.5 43q0 1 0.5 1.5t0.5 1.5q1 6 5 8t8 1.5t7.5 -4.5t3.5 -10q0 -1 -0.5 -3t-0.5 -7.5t-0.5 -17t-1.5 -30.5q-1 -32 1.5 -63.5t16.5 -54.5q9 -15 20 -16t22.5 6.5t23 22t21 29.5t16.5 28.5t10 20.5q7 14 14 28.5t10 26.5q7 13 15 10t8 -16q-5 -20 -17.5 -46
t-29.5 -53zM59 278q-3 -4 -8 -5t-9 0.5t-6 5t0 8.5q5 10 11 25t12 29.5t12 25t12 12.5q5 1 9 1t9 -5q8 -8 16 -21.5t14.5 -26.5t11 -23t5.5 -13q4 -12 -4.5 -15.5t-13.5 3.5q-8 12 -17.5 32t-21.5 40q-8 -14 -14.5 -32.5t-17.5 -40.5z" />
    <glyph glyph-name="udieresis" unicode="&#xfc;" 
d="M288 89q-7 -12 -20 -30.5t-29 -33t-34 -19t-36 12.5q-11 11 -18 26t-12 35l-12 -34q-2 -5 -5 -11.5t-7.5 -13t-10 -11.5t-11.5 -6q-16 -2 -27 8t-18.5 28t-12 40.5t-7 44.5t-3.5 41t-1 29q2 12 12 12t12 -10q0 -15 2 -39.5t5.5 -50t10 -48t17.5 -32.5q15 7 24.5 34.5
t15 59.5t8 62t4.5 43q0 1 0.5 1.5t0.5 1.5q1 6 5 8t8 1.5t7.5 -4.5t3.5 -10q0 -1 -0.5 -3t-0.5 -7.5t-0.5 -17t-1.5 -30.5q-1 -32 1.5 -63.5t16.5 -54.5q9 -15 20 -16t22.5 6.5t23 22t21 29.5t16.5 28.5t10 20.5q7 14 14 28.5t10 26.5q7 13 15 10t8 -16q-5 -20 -17.5 -46
t-29.5 -53zM41 296q1 10 7 14.5t12 3.5t11 -6t5 -14q-2 -8 -7 -11.5t-10.5 -3.5t-11 4t-6.5 12v1zM133 309q6 -7 4.5 -14t-6 -11.5t-11 -4.5t-10.5 7q-8 13 2 21.5t21 1.5z" />
    <glyph glyph-name="yacute" unicode="&#xfd;" horiz-adv-x="320" 
d="M201 -7q48 40 78 81.5t41 64.5q6 14 13 28.5t11 26.5q6 13 14.5 10t8.5 -16q-6 -20 -17.5 -46.5t-29.5 -52.5q-15 -21 -28.5 -37.5t-27 -30.5t-28 -27.5t-30.5 -28.5q5 -45 10.5 -88.5t6.5 -91.5q0 -30 -6 -54.5t-21 -37.5t-39.5 -10t-60.5 29q-14 9 -25.5 21.5t-19.5 26
t-11 27t1 26.5q11 38 51.5 79.5t87.5 84.5q-3 18 -6 42.5t-5.5 47t-4 40t-1.5 22.5q-6 -18 -13.5 -32.5t-16 -23t-18.5 -10t-22 7.5q-15 12 -26.5 29t-19.5 34.5t-14 34t-10 28.5t5 16t17 -7q4 -13 11 -31t15.5 -35.5t17 -31t17.5 -18.5q10 -5 19.5 7.5t16.5 34t11 47.5
t5 47q1 4 4.5 7t8 3.5t8 -1.5t3.5 -6q0 -25 2 -56t4.5 -63t6 -62.5t6.5 -54.5zM111 -269q27 -20 45 -22.5t28.5 7.5t15 29.5t3.5 43.5q-2 37 -6.5 76t-10.5 84q-47 -38 -75.5 -70.5t-41.5 -60.5q-11 -23 4 -46.5t38 -40.5zM126 358q3 6 8 7t9 -0.5t5.5 -5.5t-1.5 -10
q-15 -29 -34 -52t-42 -46q-9 -5 -15.5 1.5t-1.5 15.5q21 23 39 43.5t33 46.5z" />
    <glyph glyph-name="thorn" unicode="&#xfe;" horiz-adv-x="199" 
d="M24 467q1 6 5 9t8 2.5t7.5 -4.5t3.5 -10q-2 -106 0 -211q15 19 34.5 23t38 -6.5t33 -35t20.5 -62.5q5 -34 -6 -64t-30.5 -49.5t-43.5 -27t-45 3.5v-164q-5 -10 -13.5 -9.5t-10.5 11.5v184q-11 18 -17 46q-2 8 4.5 12t12.5 1q0 88 -1 175.5t0 175.5zM49 66q14 -17 33 -13
t35.5 20.5t26.5 42.5t6 54q-5 36 -19 56t-30 23t-31 -12t-21 -49v-122z" />
    <glyph glyph-name="ydieresis" unicode="&#xff;" horiz-adv-x="320" 
d="M201 -7q48 40 78 81.5t41 64.5q6 14 13 28.5t11 26.5q6 13 14.5 10t8.5 -16q-6 -20 -17.5 -46.5t-29.5 -52.5q-15 -21 -28.5 -37.5t-27 -30.5t-28 -27.5t-30.5 -28.5q5 -45 10.5 -88.5t6.5 -91.5q0 -30 -6 -54.5t-21 -37.5t-39.5 -10t-60.5 29q-14 9 -25.5 21.5t-19.5 26
t-11 27t1 26.5q11 38 51.5 79.5t87.5 84.5q-3 18 -6 42.5t-5.5 47t-4 40t-1.5 22.5q-6 -18 -13.5 -32.5t-16 -23t-18.5 -10t-22 7.5q-15 12 -26.5 29t-19.5 34.5t-14 34t-10 28.5t5 16t17 -7q4 -13 11 -31t15.5 -35.5t17 -31t17.5 -18.5q10 -5 19.5 7.5t16.5 34t11 47.5
t5 47q1 4 4.5 7t8 3.5t8 -1.5t3.5 -6q0 -25 2 -56t4.5 -63t6 -62.5t6.5 -54.5zM111 -269q27 -20 45 -22.5t28.5 7.5t15 29.5t3.5 43.5q-2 37 -6.5 76t-10.5 84q-47 -38 -75.5 -70.5t-41.5 -60.5q-11 -23 4 -46.5t38 -40.5zM52 297q1 10 7 14.5t12 3.5t11 -6t5 -14
q-2 -8 -7 -11.5t-10.5 -3.5t-11 4t-6.5 12v1zM144 310q6 -7 4.5 -14t-6 -11.5t-11 -4.5t-10.5 7q-8 13 2 21.5t21 1.5z" />
    <glyph glyph-name="Amacron" unicode="&#x100;" horiz-adv-x="416" 
d="M14 124q-11 2 -11.5 10.5t9.5 13.5q9 0 18 0.5t18 1.5q7 40 16 82t20 81t24 72.5t28 55.5q6 8 22 12.5t24 -3.5q15 -32 25 -66t17.5 -68.5t14 -70t14.5 -69.5l88 12q6 0 10 -3.5t4.5 -8t-2.5 -8t-9 -4.5q-22 -2 -43 -5l-42 -6q4 -14 8 -27.5t9 -27.5q6 -17 13 -33
t16.5 -24.5t22.5 -7t30 20.5q20 22 36.5 48t21.5 37q7 14 13.5 28.5t10.5 26.5q7 13 15 10t8 -16q-5 -20 -17.5 -46t-29.5 -53q-14 -22 -33 -45t-40 -33.5t-41.5 -2.5t-37.5 49q-11 22 -18 45t-12 48q-42 -6 -83 -11.5t-80 -10.5l-20 -110q-4 -11 -15 -9.5t-11 13.5
q5 21 9.5 47.5t9.5 56.5q-8 -1 -15 -1.5t-15 -0.5zM165 428q-16 -11 -29 -39t-24 -65.5t-20 -81.5t-17 -89q38 4 77 9.5t77 10.5q-7 32 -12.5 64.5t-12 65t-16 64t-23.5 61.5zM96 499q-11 2 -12 10.5t10 13.5q31 1 62 4t62 4q6 0 9.5 -3.5t4 -8t-2.5 -8t-9 -4.5
q-31 -1 -61.5 -4t-62.5 -4z" />
    <glyph glyph-name="amacron" unicode="&#x101;" horiz-adv-x="293" 
d="M212 48q15 2 26.5 11t21 21.5t17.5 28t16 30.5q8 14 14 28.5t10 26.5q7 13 15 10t8 -16q-5 -20 -17.5 -45t-29.5 -53q-18 -28 -36.5 -47t-41.5 -19q-35 0 -54.5 34.5t-29.5 83.5q-13 -37 -28 -64q-13 -23 -30 -40t-34 -11q-13 4 -21.5 22t-10.5 43t3 54.5t19 58.5
q11 23 30.5 38t40 17.5t36.5 -10t21 -44.5q0 -4 -1.5 -6.5t-3.5 -4.5q2 -21 7.5 -47t13.5 -49t18 -38t21 -13zM80 92q15 31 25 64t20 71q-6 8 -14.5 9.5t-18 -1.5t-18.5 -9.5t-15 -15.5q-8 -12 -14 -33.5t-9 -45t-2.5 -44.5t5.5 -30t15 -2.5t26 37.5zM32 302q-11 2 -12 10.5
t10 13.5q31 1 62 4t62 4q6 0 9.5 -3.5t4 -8t-2.5 -8t-9 -4.5q-31 -1 -61.5 -4t-62.5 -4z" />
    <glyph glyph-name="Abreve" unicode="&#x102;" horiz-adv-x="416" 
d="M14 124q-11 2 -11.5 10.5t9.5 13.5q9 0 18 0.5t18 1.5q7 40 16 82t20 81t24 72.5t28 55.5q6 8 22 12.5t24 -3.5q15 -32 25 -66t17.5 -68.5t14 -70t14.5 -69.5l88 12q6 0 10 -3.5t4.5 -8t-2.5 -8t-9 -4.5q-22 -2 -43 -5l-42 -6q4 -14 8 -27.5t9 -27.5q6 -17 13 -33
t16.5 -24.5t22.5 -7t30 20.5q20 22 36.5 48t21.5 37q7 14 13.5 28.5t10.5 26.5q7 13 15 10t8 -16q-5 -20 -17.5 -46t-29.5 -53q-14 -22 -33 -45t-40 -33.5t-41.5 -2.5t-37.5 49q-11 22 -18 45t-12 48q-42 -6 -83 -11.5t-80 -10.5l-20 -110q-4 -11 -15 -9.5t-11 13.5
q5 21 9.5 47.5t9.5 56.5q-8 -1 -15 -1.5t-15 -0.5zM165 428q-16 -11 -29 -39t-24 -65.5t-20 -81.5t-17 -89q38 4 77 9.5t77 10.5q-7 32 -12.5 64.5t-12 65t-16 64t-23.5 61.5zM100 552q2 11 12 11t12 -10q4 -26 13.5 -33.5t21 -2.5t21.5 18.5t15 29.5q7 10 15.5 8t8.5 -14
q-8 -28 -25 -46.5t-36 -22.5t-35.5 10t-22.5 52z" />
    <glyph glyph-name="abreve" unicode="&#x103;" horiz-adv-x="293" 
d="M212 48q15 2 26.5 11t21 21.5t17.5 28t16 30.5q8 14 14 28.5t10 26.5q7 13 15 10t8 -16q-5 -20 -17.5 -45t-29.5 -53q-18 -28 -36.5 -47t-41.5 -19q-35 0 -54.5 34.5t-29.5 83.5q-13 -37 -28 -64q-13 -23 -30 -40t-34 -11q-13 4 -21.5 22t-10.5 43t3 54.5t19 58.5
q11 23 30.5 38t40 17.5t36.5 -10t21 -44.5q0 -4 -1.5 -6.5t-3.5 -4.5q2 -21 7.5 -47t13.5 -49t18 -38t21 -13zM80 92q15 31 25 64t20 71q-6 8 -14.5 9.5t-18 -1.5t-18.5 -9.5t-15 -15.5q-8 -12 -14 -33.5t-9 -45t-2.5 -44.5t5.5 -30t15 -2.5t26 37.5zM39 359q2 11 12 11
t12 -10q4 -26 13.5 -33.5t21 -2.5t21.5 18.5t15 29.5q7 10 15.5 8t8.5 -14q-8 -28 -25 -46.5t-36 -22.5t-35.5 10t-22.5 52z" />
    <glyph glyph-name="Aogonek" unicode="&#x104;" horiz-adv-x="416" 
d="M14 124q-11 2 -11.5 10.5t9.5 13.5q9 0 18 0.5t18 1.5q7 40 16 82t20 81t24 72.5t28 55.5q6 8 22 12.5t24 -3.5q15 -32 25 -66t17.5 -68.5t14 -70t14.5 -69.5l88 12q6 0 10 -3.5t4.5 -8t-2.5 -8t-9 -4.5q-22 -2 -43 -5l-42 -6q4 -14 8 -27.5t9 -27.5q6 -17 13 -33
t16.5 -24.5t22.5 -7t30 20.5q20 22 36.5 48t21.5 37q7 14 13.5 28.5t10.5 26.5q7 13 15 10t8 -16q-5 -20 -17.5 -46t-29.5 -53q-14 -22 -33 -45t-40 -33.5t-41.5 -2.5t-37.5 49q-11 22 -18 45t-12 48q-42 -6 -83 -11.5t-80 -10.5l-20 -110q-4 -11 -15 -9.5t-11 13.5
q5 21 9.5 47.5t9.5 56.5q-8 -1 -15 -1.5t-15 -0.5zM165 428q-16 -11 -29 -39t-24 -65.5t-20 -81.5t-17 -89q38 4 77 9.5t77 10.5q-7 32 -12.5 64.5t-12 65t-16 64t-23.5 61.5zM373 70q10 8 17.5 0.5t-0.5 -17.5q-13 -13 -25 -27.5t-15 -27t7 -22t40 -11.5q10 -3 10 -12.5
t-11 -11.5q-38 3 -54 16t-15.5 31.5t13.5 40t33 41.5z" />
    <glyph glyph-name="aogonek" unicode="&#x105;" horiz-adv-x="293" 
d="M212 48q15 2 26.5 11t21 21.5t17.5 28t16 30.5q8 14 14 28.5t10 26.5q7 13 15 10t8 -16q-5 -20 -17.5 -45t-29.5 -53q-18 -28 -36.5 -47t-41.5 -19q-35 0 -54.5 34.5t-29.5 83.5q-13 -37 -28 -64q-13 -23 -30 -40t-34 -11q-13 4 -21.5 22t-10.5 43t3 54.5t19 58.5
q11 23 30.5 38t40 17.5t36.5 -10t21 -44.5q0 -4 -1.5 -6.5t-3.5 -4.5q2 -21 7.5 -47t13.5 -49t18 -38t21 -13zM80 92q15 31 25 64t20 71q-6 8 -14.5 9.5t-18 -1.5t-18.5 -9.5t-15 -15.5q-8 -12 -14 -33.5t-9 -45t-2.5 -44.5t5.5 -30t15 -2.5t26 37.5zM225 49q10 8 17.5 0.5
t-0.5 -17.5q-13 -13 -25 -27.5t-15 -27t7 -22t40 -11.5q10 -3 10 -12.5t-11 -11.5q-38 3 -54 16t-15.5 31.5t13.5 40t33 41.5z" />
    <glyph glyph-name="Cacute" unicode="&#x106;" horiz-adv-x="387" 
d="M245 375q11 -35 17.5 -60.5t6.5 -44.5q0 -11 -4 -16t-9 -5t-9 4t-3 12q1 13 -1.5 27t-6.5 30q-5 19 -12.5 38t-17.5 34t-22.5 25.5t-26.5 12.5q-22 3 -40 -8t-32.5 -31.5t-25 -47.5t-17.5 -55.5t-10.5 -56t-2.5 -48.5q1 -22 3.5 -43.5t8 -40.5t14 -34t21.5 -24
q23 -15 52.5 -17.5t62 5t65.5 23.5t62.5 37.5t53.5 48t39 54.5q7 10 15 8t8 -14q-12 -31 -37 -60.5t-57.5 -54t-69.5 -42t-75 -25t-73.5 -3t-63.5 24.5t-39.5 60t-12.5 86t6.5 90t16.5 71q7 19 19.5 42t29.5 42t38 30.5t44 7.5q25 -4 47 -27t38 -55zM169 596q3 6 8 7t9 -0.5
t5.5 -5.5t-1.5 -10q-15 -29 -34 -52t-42 -46q-9 -5 -15.5 1.5t-1.5 15.5q21 23 39 43.5t33 46.5z" />
    <glyph glyph-name="cacute" unicode="&#x107;" horiz-adv-x="218" 
d="M265 188q-9 -28 -26.5 -62.5t-41.5 -64.5t-54.5 -49.5t-65.5 -18.5q-30 1 -51 26.5t-21 86.5q0 15 4 36.5t12 43t20 38t29 20.5q18 5 33 -11.5t19 -49.5q0 -6 -3.5 -9.5t-8 -3.5t-8 3t-4.5 9q-5 44 -24 34q-12 -6 -20.5 -19t-13.5 -28.5t-7 -31.5t-2 -28
q2 -44 14.5 -65.5t32.5 -24.5q28 -4 54.5 14.5t48 46.5t37.5 59.5t24 54.5q7 13 17 9.5t6 -15.5zM97 387q3 6 8 7t9 -0.5t5.5 -5.5t-1.5 -10q-15 -29 -34 -52t-42 -46q-9 -5 -15.5 1.5t-1.5 15.5q21 23 39 43.5t33 46.5z" />
    <glyph glyph-name="Ccircumflex" unicode="&#x108;" horiz-adv-x="387" 
d="M245 375q11 -35 17.5 -60.5t6.5 -44.5q0 -11 -4 -16t-9 -5t-9 4t-3 12q1 13 -1.5 27t-6.5 30q-5 19 -12.5 38t-17.5 34t-22.5 25.5t-26.5 12.5q-22 3 -40 -8t-32.5 -31.5t-25 -47.5t-17.5 -55.5t-10.5 -56t-2.5 -48.5q1 -22 3.5 -43.5t8 -40.5t14 -34t21.5 -24
q23 -15 52.5 -17.5t62 5t65.5 23.5t62.5 37.5t53.5 48t39 54.5q7 10 15 8t8 -14q-12 -31 -37 -60.5t-57.5 -54t-69.5 -42t-75 -25t-73.5 -3t-63.5 24.5t-39.5 60t-12.5 86t6.5 90t16.5 71q7 19 19.5 42t29.5 42t38 30.5t44 7.5q25 -4 47 -27t38 -55zM109 494q-3 -4 -8 -5
t-9 0.5t-6 5t0 8.5q5 10 11 25t12 29.5t12 25t12 12.5q5 1 9 1t9 -5q8 -8 16 -21.5t14.5 -26.5t11 -23t5.5 -13q4 -12 -4.5 -15.5t-13.5 3.5q-8 12 -17.5 32t-21.5 40q-8 -14 -14.5 -32.5t-17.5 -40.5z" />
    <glyph glyph-name="ccircumflex" unicode="&#x109;" horiz-adv-x="218" 
d="M265 188q-9 -28 -26.5 -62.5t-41.5 -64.5t-54.5 -49.5t-65.5 -18.5q-30 1 -51 26.5t-21 86.5q0 15 4 36.5t12 43t20 38t29 20.5q18 5 33 -11.5t19 -49.5q0 -6 -3.5 -9.5t-8 -3.5t-8 3t-4.5 9q-5 44 -24 34q-12 -6 -20.5 -19t-13.5 -28.5t-7 -31.5t-2 -28
q2 -44 14.5 -65.5t32.5 -24.5q28 -4 54.5 14.5t48 46.5t37.5 59.5t24 54.5q7 13 17 9.5t6 -15.5zM40 285q-3 -4 -8 -5t-9 0.5t-6 5t0 8.5q5 10 11 25t12 29.5t12 25t12 12.5q5 1 9 1t9 -5q8 -8 16 -21.5t14.5 -26.5t11 -23t5.5 -13q4 -12 -4.5 -15.5t-13.5 3.5
q-8 12 -17.5 32t-21.5 40q-8 -14 -14.5 -32.5t-17.5 -40.5z" />
    <glyph glyph-name="Cdotaccent" unicode="&#x10a;" horiz-adv-x="387" 
d="M245 375q11 -35 17.5 -60.5t6.5 -44.5q0 -11 -4 -16t-9 -5t-9 4t-3 12q1 13 -1.5 27t-6.5 30q-5 19 -12.5 38t-17.5 34t-22.5 25.5t-26.5 12.5q-22 3 -40 -8t-32.5 -31.5t-25 -47.5t-17.5 -55.5t-10.5 -56t-2.5 -48.5q1 -22 3.5 -43.5t8 -40.5t14 -34t21.5 -24
q23 -15 52.5 -17.5t62 5t65.5 23.5t62.5 37.5t53.5 48t39 54.5q7 10 15 8t8 -14q-12 -31 -37 -60.5t-57.5 -54t-69.5 -42t-75 -25t-73.5 -3t-63.5 24.5t-39.5 60t-12.5 86t6.5 90t16.5 71q7 19 19.5 42t29.5 42t38 30.5t44 7.5q25 -4 47 -27t38 -55zM155 534q6 -8 4.5 -15
t-6.5 -11.5t-12 -4.5t-12 8q-5 7 -3.5 13t6 9.5t11 4t12.5 -3.5z" />
    <glyph glyph-name="cdotaccent" unicode="&#x10b;" horiz-adv-x="218" 
d="M265 188q-9 -28 -26.5 -62.5t-41.5 -64.5t-54.5 -49.5t-65.5 -18.5q-30 1 -51 26.5t-21 86.5q0 15 4 36.5t12 43t20 38t29 20.5q18 5 33 -11.5t19 -49.5q0 -6 -3.5 -9.5t-8 -3.5t-8 3t-4.5 9q-5 44 -24 34q-12 -6 -20.5 -19t-13.5 -28.5t-7 -31.5t-2 -28
q2 -44 14.5 -65.5t32.5 -24.5q28 -4 54.5 14.5t48 46.5t37.5 59.5t24 54.5q7 13 17 9.5t6 -15.5zM91 325q6 -8 4.5 -15t-6.5 -11.5t-12 -4.5t-12 8q-5 7 -3.5 13t6 9.5t11 4t12.5 -3.5z" />
    <glyph glyph-name="Ccaron" unicode="&#x10c;" horiz-adv-x="387" 
d="M245 375q11 -35 17.5 -60.5t6.5 -44.5q0 -11 -4 -16t-9 -5t-9 4t-3 12q1 13 -1.5 27t-6.5 30q-5 19 -12.5 38t-17.5 34t-22.5 25.5t-26.5 12.5q-22 3 -40 -8t-32.5 -31.5t-25 -47.5t-17.5 -55.5t-10.5 -56t-2.5 -48.5q1 -22 3.5 -43.5t8 -40.5t14 -34t21.5 -24
q23 -15 52.5 -17.5t62 5t65.5 23.5t62.5 37.5t53.5 48t39 54.5q7 10 15 8t8 -14q-12 -31 -37 -60.5t-57.5 -54t-69.5 -42t-75 -25t-73.5 -3t-63.5 24.5t-39.5 60t-12.5 86t6.5 90t16.5 71q7 19 19.5 42t29.5 42t38 30.5t44 7.5q25 -4 47 -27t38 -55zM92 567q-5 12 4 17.5
t17 -5.5q7 -10 16.5 -32.5t17.5 -39.5q5 17 14 42t20 50q6 10 15 7.5t9 -13.5q-4 -10 -10 -28.5t-13.5 -37.5t-16 -34.5t-16.5 -18.5q-6 -1 -13 4q-6 9 -12.5 22t-12.5 26.5t-11 24.5t-8 16z" />
    <glyph glyph-name="ccaron" unicode="&#x10d;" horiz-adv-x="218" 
d="M265 188q-9 -28 -26.5 -62.5t-41.5 -64.5t-54.5 -49.5t-65.5 -18.5q-30 1 -51 26.5t-21 86.5q0 15 4 36.5t12 43t20 38t29 20.5q18 5 33 -11.5t19 -49.5q0 -6 -3.5 -9.5t-8 -3.5t-8 3t-4.5 9q-5 44 -24 34q-12 -6 -20.5 -19t-13.5 -28.5t-7 -31.5t-2 -28
q2 -44 14.5 -65.5t32.5 -24.5q28 -4 54.5 14.5t48 46.5t37.5 59.5t24 54.5q7 13 17 9.5t6 -15.5zM20 370q-5 12 4 17.5t17 -5.5q7 -10 16.5 -32.5t17.5 -39.5q5 17 14 42t20 50q6 10 15 7.5t9 -13.5q-4 -10 -10 -28.5t-13.5 -37.5t-16 -34.5t-16.5 -18.5q-6 -1 -13 4
q-6 9 -12.5 22t-12.5 26.5t-11 24.5t-8 16z" />
    <glyph glyph-name="Dcaron" unicode="&#x10e;" horiz-adv-x="410" 
d="M112 468q4 12 13 12.5t11 -10.5q-1 -11 -0.5 -22.5t0.5 -22.5q30 -4 71.5 -21t80 -43.5t67 -60.5t33.5 -72q6 -44 -21 -77.5t-67.5 -57.5t-85 -39t-75.5 -23l-2 -4q-1 -6 -5 -14t-9.5 -14.5t-12.5 -9t-14 2.5q-5 2 -8.5 10.5t-9.5 19.5q-14 2 -18 10.5t8 24.5
q-24 64 -43 130t-20.5 119.5t22 87t85.5 32.5q0 11 -0.5 21t0.5 21zM362 224q-5 34 -29.5 64.5t-58 53.5t-70.5 38t-67 19q0 -32 2 -73t4.5 -87t3 -93t-2.5 -91q25 6 64 19t75 34t60 50t19 66zM119 52q4 37 4.5 81.5t-1.5 91t-5 92.5t-5 85q-41 5 -59 -15t-21 -54t5.5 -77
t21 -84t24.5 -75t17 -50q10 0 18 5h1zM109 18l1.5 3t0.5 3q-1 0 -2 -0.5t-3 -0.5zM127 554q-5 12 4 17.5t17 -5.5q7 -10 16.5 -32.5t17.5 -39.5q5 17 14 42t20 50q6 10 15 7.5t9 -13.5q-4 -10 -10 -28.5t-13.5 -37.5t-16 -34.5t-16.5 -18.5q-6 -1 -13 4q-6 9 -12.5 22
t-12.5 26.5t-11 24.5t-8 16z" />
    <glyph glyph-name="dcaron" unicode="&#x10f;" horiz-adv-x="309" 
d="M136 117q-2 -8 -6 -27t-11 -39t-18.5 -35t-28.5 -15q-24 0 -38.5 16t-21.5 40.5t-6.5 53.5t7.5 55.5t20.5 46t31.5 25.5q11 3 28.5 -3t34.5 -18q5 60 9 118t16 96q1 4 5 7.5t8 3.5t7.5 -3t3.5 -10q0 -32 -2.5 -67t-5 -71.5t-3 -73t2.5 -71.5v-5q0 -2 0.5 -2.5t0.5 -1.5
q2 -17 5.5 -35t8 -33.5t11 -26t14.5 -13.5q11 -4 26.5 10t30.5 33.5t27 39t16 27.5q6 14 13 28.5t11 26.5q6 13 14.5 10t8.5 -16q-5 -20 -17.5 -46t-29.5 -53q-6 -9 -18.5 -25.5t-28 -32t-32.5 -25t-32 -5.5q-12 3 -22 22.5t-17.5 44t-11.5 49.5t-5 40q-1 -20 -6 -40zM70 27
q13 1 22 16t15 38t10 51.5t7 55.5q-5 5 -10 9l-10 8q-20 12 -34.5 3.5t-23.5 -29t-12 -47t0 -50.5t12 -40t24 -15zM229 367q-1 11 7 14t16 -6q15 -23 12 -54t-27 -59q-9 -6 -15.5 1t-1.5 16q19 23 19.5 42.5t-10.5 45.5z" />
    <glyph glyph-name="Dcroat" unicode="&#x110;" horiz-adv-x="410" 
d="M16 148q-12 2 -12 12t13 10q48 0 90.5 0.5t90.5 0.5q13 0 14 -10t-12 -12q-49 0 -91.5 -0.5t-92.5 -0.5zM112 468q4 12 13 12.5t11 -10.5q-1 -11 -0.5 -22.5t0.5 -22.5q30 -4 71.5 -21t80 -43.5t67 -60.5t33.5 -72q6 -44 -21 -77.5t-67.5 -57.5t-85 -39t-75.5 -23l-2 -4
q-1 -6 -5 -14t-9.5 -14.5t-12.5 -9t-14 2.5q-5 2 -8.5 10.5t-9.5 19.5q-14 2 -18 10.5t8 24.5q-24 64 -43 130t-20.5 119.5t22 87t85.5 32.5q0 11 -0.5 21t0.5 21zM362 224q-5 34 -29.5 64.5t-58 53.5t-70.5 38t-67 19q0 -32 2 -73t4.5 -87t3 -93t-2.5 -91q25 6 64 19t75 34
t60 50t19 66zM119 52q4 37 4.5 81.5t-1.5 91t-5 92.5t-5 85q-41 5 -59 -15t-21 -54t5.5 -77t21 -84t24.5 -75t17 -50q10 0 18 5h1zM109 18l1.5 3t0.5 3q-1 0 -2 -0.5t-3 -0.5z" />
    <glyph glyph-name="dcroat" unicode="&#x111;" horiz-adv-x="309" 
d="M136 117q-2 -8 -6 -27t-11 -39t-18.5 -35t-28.5 -15q-24 0 -38.5 16t-21.5 40.5t-6.5 53.5t7.5 55.5t20.5 46t31.5 25.5q11 3 28.5 -3t34.5 -18q5 60 9 118t16 96q1 4 5 7.5t8 3.5t7.5 -3t3.5 -10q0 -32 -2.5 -67t-5 -71.5t-3 -73t2.5 -71.5v-5q0 -2 0.5 -2.5t0.5 -1.5
q2 -17 5.5 -35t8 -33.5t11 -26t14.5 -13.5q11 -4 26.5 10t30.5 33.5t27 39t16 27.5q6 14 13 28.5t11 26.5q6 13 14.5 10t8.5 -16q-5 -20 -17.5 -46t-29.5 -53q-6 -9 -18.5 -25.5t-28 -32t-32.5 -25t-32 -5.5q-12 3 -22 22.5t-17.5 44t-11.5 49.5t-5 40q-1 -20 -6 -40zM70 27
q13 1 22 16t15 38t10 51.5t7 55.5q-5 5 -10 9l-10 8q-20 12 -34.5 3.5t-23.5 -29t-12 -47t0 -50.5t12 -40t24 -15zM76 272q-6 1 -9 4.5t-3 8t3.5 8t9.5 3.5h40.5t31.5 0.5t31.5 0.5h40.5q6 0 10 -3.5t4.5 -8t-2.5 -8t-9 -4.5h-41t-32.5 -0.5t-32.5 -0.5h-42z" />
    <glyph glyph-name="Emacron" unicode="&#x112;" horiz-adv-x="438" 
d="M267 431q9 -8 5.5 -16.5t-14.5 -6.5q-21 6 -54 2t-63 -15.5t-51 -30t-19 -41.5q1 -15 19.5 -23t42 -11t47 -2.5t35.5 0.5q26 13 45 11t25 -9.5t-3.5 -16t-39.5 -8.5q-35 -8 -69 -19.5t-69 -34.5q-32 -20 -51 -43.5t-22 -46t12 -42t53 -31.5q32 32 71.5 56.5t74.5 36.5
q14 4 41 9t54.5 5t49.5 -8.5t25 -30.5q5 -26 -18 -49t-70 -37q-19 -6 -46 -11t-57.5 -7.5t-61.5 -1.5t-56 8q-29 -35 -38.5 -72t-0.5 -84q0 -11 -9.5 -12.5t-14.5 7.5q-4 18 -5.5 37.5t1.5 40.5t12.5 44t28.5 47q-51 22 -65 54t0 65.5t52.5 65t91.5 52.5q-13 0 -31 2.5
t-34.5 8t-29 16t-14.5 27.5q-3 23 8 42t30 33.5t44 24.5t50.5 14.5t49 5t38.5 -4.5zM250 116q-33 -11 -66.5 -32t-61.5 -47q18 -5 45 -6.5t56.5 1t58.5 8.5t52.5 16t38 24t14.5 31q-5 11 -21 15.5t-36.5 4t-42 -4.5t-37.5 -10zM119 486q-11 2 -12 10.5t10 13.5q31 1 62 4
t62 4q6 0 9.5 -3.5t4 -8t-2.5 -8t-9 -4.5q-31 -1 -61.5 -4t-62.5 -4z" />
    <glyph glyph-name="emacron" unicode="&#x113;" horiz-adv-x="217" 
d="M217 89q-11 -17 -27.5 -34t-37 -30.5t-43.5 -20t-47 -0.5q-17 4 -28 20.5t-16.5 40.5t-6 52t4.5 54q6 35 18.5 54.5t27 26t28 2t22 -18t9 -34.5t-10.5 -47q-11 -24 -30.5 -46.5t-37.5 -33.5q4 -17 11 -28.5t18 -15.5q21 -7 43.5 2.5t42.5 27.5t35.5 39.5t24.5 39.5
q7 14 13.5 28.5t10.5 26.5q7 13 15 10t8 -16q-5 -20 -17.5 -46t-29.5 -53zM88 164q10 22 7 41t-12 24.5t-21 -7.5t-19 -53q-3 -17 -4.5 -34t0.5 -34q12 10 26 26.5t23 36.5zM12 300q-11 2 -12 10.5t10 13.5q31 1 62 4t62 4q6 0 9.5 -3.5t4 -8t-2.5 -8t-9 -4.5
q-31 -1 -61.5 -4t-62.5 -4z" />
    <glyph glyph-name="Ebreve" unicode="&#x114;" horiz-adv-x="438" 
d="M267 431q9 -8 5.5 -16.5t-14.5 -6.5q-21 6 -54 2t-63 -15.5t-51 -30t-19 -41.5q1 -15 19.5 -23t42 -11t47 -2.5t35.5 0.5q26 13 45 11t25 -9.5t-3.5 -16t-39.5 -8.5q-35 -8 -69 -19.5t-69 -34.5q-32 -20 -51 -43.5t-22 -46t12 -42t53 -31.5q32 32 71.5 56.5t74.5 36.5
q14 4 41 9t54.5 5t49.5 -8.5t25 -30.5q5 -26 -18 -49t-70 -37q-19 -6 -46 -11t-57.5 -7.5t-61.5 -1.5t-56 8q-29 -35 -38.5 -72t-0.5 -84q0 -11 -9.5 -12.5t-14.5 7.5q-4 18 -5.5 37.5t1.5 40.5t12.5 44t28.5 47q-51 22 -65 54t0 65.5t52.5 65t91.5 52.5q-13 0 -31 2.5
t-34.5 8t-29 16t-14.5 27.5q-3 23 8 42t30 33.5t44 24.5t50.5 14.5t49 5t38.5 -4.5zM250 116q-33 -11 -66.5 -32t-61.5 -47q18 -5 45 -6.5t56.5 1t58.5 8.5t52.5 16t38 24t14.5 31q-5 11 -21 15.5t-36.5 4t-42 -4.5t-37.5 -10zM123 527q2 11 12 11t12 -10q4 -26 13.5 -33.5
t21 -2.5t21.5 18.5t15 29.5q7 10 15.5 8t8.5 -14q-8 -28 -25 -46.5t-36 -22.5t-35.5 10t-22.5 52z" />
    <glyph glyph-name="ebreve" unicode="&#x115;" horiz-adv-x="217" 
d="M217 89q-11 -17 -27.5 -34t-37 -30.5t-43.5 -20t-47 -0.5q-17 4 -28 20.5t-16.5 40.5t-6 52t4.5 54q6 35 18.5 54.5t27 26t28 2t22 -18t9 -34.5t-10.5 -47q-11 -24 -30.5 -46.5t-37.5 -33.5q4 -17 11 -28.5t18 -15.5q21 -7 43.5 2.5t42.5 27.5t35.5 39.5t24.5 39.5
q7 14 13.5 28.5t10.5 26.5q7 13 15 10t8 -16q-5 -20 -17.5 -46t-29.5 -53zM88 164q10 22 7 41t-12 24.5t-21 -7.5t-19 -53q-3 -17 -4.5 -34t0.5 -34q12 10 26 26.5t23 36.5zM28 354q2 11 12 11t12 -10q4 -26 13.5 -33.5t21 -2.5t21.5 18.5t15 29.5q7 10 15.5 8t8.5 -14
q-8 -28 -25 -46.5t-36 -22.5t-35.5 10t-22.5 52z" />
    <glyph glyph-name="Edotaccent" unicode="&#x116;" horiz-adv-x="438" 
d="M267 431q9 -8 5.5 -16.5t-14.5 -6.5q-21 6 -54 2t-63 -15.5t-51 -30t-19 -41.5q1 -15 19.5 -23t42 -11t47 -2.5t35.5 0.5q26 13 45 11t25 -9.5t-3.5 -16t-39.5 -8.5q-35 -8 -69 -19.5t-69 -34.5q-32 -20 -51 -43.5t-22 -46t12 -42t53 -31.5q32 32 71.5 56.5t74.5 36.5
q14 4 41 9t54.5 5t49.5 -8.5t25 -30.5q5 -26 -18 -49t-70 -37q-19 -6 -46 -11t-57.5 -7.5t-61.5 -1.5t-56 8q-29 -35 -38.5 -72t-0.5 -84q0 -11 -9.5 -12.5t-14.5 7.5q-4 18 -5.5 37.5t1.5 40.5t12.5 44t28.5 47q-51 22 -65 54t0 65.5t52.5 65t91.5 52.5q-13 0 -31 2.5
t-34.5 8t-29 16t-14.5 27.5q-3 23 8 42t30 33.5t44 24.5t50.5 14.5t49 5t38.5 -4.5zM250 116q-33 -11 -66.5 -32t-61.5 -47q18 -5 45 -6.5t56.5 1t58.5 8.5t52.5 16t38 24t14.5 31q-5 11 -21 15.5t-36.5 4t-42 -4.5t-37.5 -10zM178 511q6 -8 4.5 -15t-6.5 -11.5t-12 -4.5
t-12 8q-5 7 -3.5 13t6 9.5t11 4t12.5 -3.5z" />
    <glyph glyph-name="edotaccent" unicode="&#x117;" horiz-adv-x="217" 
d="M217 89q-11 -17 -27.5 -34t-37 -30.5t-43.5 -20t-47 -0.5q-17 4 -28 20.5t-16.5 40.5t-6 52t4.5 54q6 35 18.5 54.5t27 26t28 2t22 -18t9 -34.5t-10.5 -47q-11 -24 -30.5 -46.5t-37.5 -33.5q4 -17 11 -28.5t18 -15.5q21 -7 43.5 2.5t42.5 27.5t35.5 39.5t24.5 39.5
q7 14 13.5 28.5t10.5 26.5q7 13 15 10t8 -16q-5 -20 -17.5 -46t-29.5 -53zM88 164q10 22 7 41t-12 24.5t-21 -7.5t-19 -53q-3 -17 -4.5 -34t0.5 -34q12 10 26 26.5t23 36.5zM90 335q6 -8 4.5 -15t-6.5 -11.5t-12 -4.5t-12 8q-5 7 -3.5 13t6 9.5t11 4t12.5 -3.5z" />
    <glyph glyph-name="Eogonek" unicode="&#x118;" horiz-adv-x="438" 
d="M267 431q9 -8 5.5 -16.5t-14.5 -6.5q-21 6 -54 2t-63 -15.5t-51 -30t-19 -41.5q1 -15 19.5 -23t42 -11t47 -2.5t35.5 0.5q26 13 45 11t25 -9.5t-3.5 -16t-39.5 -8.5q-35 -8 -69 -19.5t-69 -34.5q-32 -20 -51 -43.5t-22 -46t12 -42t53 -31.5q32 32 71.5 56.5t74.5 36.5
q14 4 41 9t54.5 5t49.5 -8.5t25 -30.5q5 -26 -18 -49t-70 -37q-19 -6 -46 -11t-57.5 -7.5t-61.5 -1.5t-56 8q-29 -35 -38.5 -72t-0.5 -84q0 -11 -9.5 -12.5t-14.5 7.5q-4 18 -5.5 37.5t1.5 40.5t12.5 44t28.5 47q-51 22 -65 54t0 65.5t52.5 65t91.5 52.5q-13 0 -31 2.5
t-34.5 8t-29 16t-14.5 27.5q-3 23 8 42t30 33.5t44 24.5t50.5 14.5t49 5t38.5 -4.5zM250 116q-33 -11 -66.5 -32t-61.5 -47q18 -5 45 -6.5t56.5 1t58.5 8.5t52.5 16t38 24t14.5 31q-5 11 -21 15.5t-36.5 4t-42 -4.5t-37.5 -10zM258 34q10 8 17.5 0.5t-0.5 -17.5
q-13 -13 -25 -27.5t-15 -27t7 -22t40 -11.5q10 -3 10 -12.5t-11 -11.5q-38 3 -54 16t-15.5 31.5t13.5 40t33 41.5z" />
    <glyph glyph-name="eogonek" unicode="&#x119;" horiz-adv-x="217" 
d="M217 89q-11 -17 -27.5 -34t-37 -30.5t-43.5 -20t-47 -0.5q-17 4 -28 20.5t-16.5 40.5t-6 52t4.5 54q6 35 18.5 54.5t27 26t28 2t22 -18t9 -34.5t-10.5 -47q-11 -24 -30.5 -46.5t-37.5 -33.5q4 -17 11 -28.5t18 -15.5q21 -7 43.5 2.5t42.5 27.5t35.5 39.5t24.5 39.5
q7 14 13.5 28.5t10.5 26.5q7 13 15 10t8 -16q-5 -20 -17.5 -46t-29.5 -53zM88 164q10 22 7 41t-12 24.5t-21 -7.5t-19 -53q-3 -17 -4.5 -34t0.5 -34q12 10 26 26.5t23 36.5zM154 56q10 8 17.5 0.5t-0.5 -17.5q-13 -13 -25 -27.5t-15 -27t7 -22t40 -11.5q10 -3 10 -12.5
t-11 -11.5q-38 3 -54 16t-15.5 31.5t13.5 40t33 41.5z" />
    <glyph glyph-name="Ecaron" unicode="&#x11a;" horiz-adv-x="438" 
d="M267 431q9 -8 5.5 -16.5t-14.5 -6.5q-21 6 -54 2t-63 -15.5t-51 -30t-19 -41.5q1 -15 19.5 -23t42 -11t47 -2.5t35.5 0.5q26 13 45 11t25 -9.5t-3.5 -16t-39.5 -8.5q-35 -8 -69 -19.5t-69 -34.5q-32 -20 -51 -43.5t-22 -46t12 -42t53 -31.5q32 32 71.5 56.5t74.5 36.5
q14 4 41 9t54.5 5t49.5 -8.5t25 -30.5q5 -26 -18 -49t-70 -37q-19 -6 -46 -11t-57.5 -7.5t-61.5 -1.5t-56 8q-29 -35 -38.5 -72t-0.5 -84q0 -11 -9.5 -12.5t-14.5 7.5q-4 18 -5.5 37.5t1.5 40.5t12.5 44t28.5 47q-51 22 -65 54t0 65.5t52.5 65t91.5 52.5q-13 0 -31 2.5
t-34.5 8t-29 16t-14.5 27.5q-3 23 8 42t30 33.5t44 24.5t50.5 14.5t49 5t38.5 -4.5zM250 116q-33 -11 -66.5 -32t-61.5 -47q18 -5 45 -6.5t56.5 1t58.5 8.5t52.5 16t38 24t14.5 31q-5 11 -21 15.5t-36.5 4t-42 -4.5t-37.5 -10zM123 548q-5 12 4 17.5t17 -5.5
q7 -10 16.5 -32.5t17.5 -39.5q5 17 14 42t20 50q6 10 15 7.5t9 -13.5q-4 -10 -10 -28.5t-13.5 -37.5t-16 -34.5t-16.5 -18.5q-6 -1 -13 4q-6 9 -12.5 22t-12.5 26.5t-11 24.5t-8 16z" />
    <glyph glyph-name="ecaron" unicode="&#x11b;" horiz-adv-x="217" 
d="M217 89q-11 -17 -27.5 -34t-37 -30.5t-43.5 -20t-47 -0.5q-17 4 -28 20.5t-16.5 40.5t-6 52t4.5 54q6 35 18.5 54.5t27 26t28 2t22 -18t9 -34.5t-10.5 -47q-11 -24 -30.5 -46.5t-37.5 -33.5q4 -17 11 -28.5t18 -15.5q21 -7 43.5 2.5t42.5 27.5t35.5 39.5t24.5 39.5
q7 14 13.5 28.5t10.5 26.5q7 13 15 10t8 -16q-5 -20 -17.5 -46t-29.5 -53zM88 164q10 22 7 41t-12 24.5t-21 -7.5t-19 -53q-3 -17 -4.5 -34t0.5 -34q12 10 26 26.5t23 36.5zM27 375q-5 12 4 17.5t17 -5.5q7 -10 16.5 -32.5t17.5 -39.5q5 17 14 42t20 50q6 10 15 7.5t9 -13.5
q-4 -10 -10 -28.5t-13.5 -37.5t-16 -34.5t-16.5 -18.5q-6 -1 -13 4q-6 9 -12.5 22t-12.5 26.5t-11 24.5t-8 16z" />
    <glyph glyph-name="Gcircumflex" unicode="&#x11c;" horiz-adv-x="431" 
d="M12 188q-12 7 -7.5 17t16.5 6q11 -5 24.5 -9t34.5 -5q-1 28 5 62t18 67t30 61.5t40 46.5t49 21.5t57 -14.5t37 -44t-3 -55.5t-33 -59t-52.5 -53.5t-62 -39t-61.5 -15v-1q5 -49 19 -77.5t33.5 -40.5t42 -9.5t44 15.5t40.5 35.5t32 49.5q0 25 3 47t14 41q5 8 13 8t11 -10
q1 -23 -3.5 -47t-14.5 -47q0 -34 6 -61t14 -61l63 23q12 0 14 -9t-8 -15l-63 -23q16 -58 26 -117t-5 -116q-14 -51 -48.5 -80t-78.5 -39t-91 -3t-84 28q-40 23 -53.5 49.5t-8 54t26 55t48.5 52t59.5 45.5t59.5 35q29 15 59.5 27.5t61.5 25.5q-5 26 -10 46t-9 45
q-38 -50 -78.5 -67t-74 -6t-57 48t-27.5 96q-23 0 -39.5 5t-28.5 11zM362 -233q11 46 3 102t-22 115q-30 -11 -60 -23t-59 -26q-23 -11 -50.5 -28.5t-52.5 -39.5t-44.5 -46t-26 -48.5t4 -47t45.5 -40.5q32 -17 73 -21t79.5 5.5t68.5 33.5t41 64zM268 420q-29 13 -52.5 6.5
t-42 -25t-32 -46t-22.5 -56.5t-13 -56t-3 -44q23 0 50 12t52.5 31t46.5 42.5t31.5 48t8 47.5t-23.5 40zM193 494q-3 -4 -8 -5t-9 0.5t-6 5t0 8.5q5 10 11 25t12 29.5t12 25t12 12.5q5 1 9 1t9 -5q8 -8 16 -21.5t14.5 -26.5t11 -23t5.5 -13q4 -12 -4.5 -15.5t-13.5 3.5
q-8 12 -17.5 32t-21.5 40q-8 -14 -14.5 -32.5t-17.5 -40.5z" />
    <glyph glyph-name="gcircumflex" unicode="&#x11d;" horiz-adv-x="273" 
d="M127 263q2 12 11.5 11.5t12.5 -10.5q5 -59 15 -109t27 -110q19 17 34 32t27 31.5t22 37t21 48.5q6 10 15 8t9 -14q-14 -33 -26 -56t-26 -41.5t-31 -34.5t-39 -35q7 -25 13.5 -47.5t12 -44.5t10 -45t6.5 -49q4 -55 -12 -89.5t-44 -51.5t-63 -19t-67 9q-56 18 -75.5 45
t-15 58.5t28.5 65.5t55.5 66t65.5 61t58 49q-8 28 -15 60t-15 64q-3 -13 -12.5 -31t-21.5 -33.5t-26.5 -25.5t-27.5 -8q-13 3 -22.5 14.5t-14.5 28.5t-5 37.5t6 41.5q7 26 19.5 42t28 23t31.5 4.5t31 -12.5zM58 -292q78 -23 119 10.5t39 111.5q-2 45 -12.5 88t-23.5 87
q-25 -20 -55 -45.5t-57 -53t-48 -55t-27 -51.5q-9 -35 11 -58.5t54 -33.5zM58 84q11 -4 22.5 8.5t22 31.5t19 40t11.5 33q-10 11 -22 19t-24.5 7.5t-24.5 -12.5t-21 -40q-4 -10 -5 -23.5t1.5 -26.5t7.5 -23.5t13 -13.5zM58 298q-3 -4 -8 -5t-9 0.5t-6 5t0 8.5q5 10 11 25
t12 29.5t12 25t12 12.5q5 1 9 1t9 -5q8 -8 16 -21.5t14.5 -26.5t11 -23t5.5 -13q4 -12 -4.5 -15.5t-13.5 3.5q-8 12 -17.5 32t-21.5 40q-8 -14 -14.5 -32.5t-17.5 -40.5z" />
    <glyph glyph-name="Gbreve" unicode="&#x11e;" horiz-adv-x="431" 
d="M12 188q-12 7 -7.5 17t16.5 6q11 -5 24.5 -9t34.5 -5q-1 28 5 62t18 67t30 61.5t40 46.5t49 21.5t57 -14.5t37 -44t-3 -55.5t-33 -59t-52.5 -53.5t-62 -39t-61.5 -15v-1q5 -49 19 -77.5t33.5 -40.5t42 -9.5t44 15.5t40.5 35.5t32 49.5q0 25 3 47t14 41q5 8 13 8t11 -10
q1 -23 -3.5 -47t-14.5 -47q0 -34 6 -61t14 -61l63 23q12 0 14 -9t-8 -15l-63 -23q16 -58 26 -117t-5 -116q-14 -51 -48.5 -80t-78.5 -39t-91 -3t-84 28q-40 23 -53.5 49.5t-8 54t26 55t48.5 52t59.5 45.5t59.5 35q29 15 59.5 27.5t61.5 25.5q-5 26 -10 46t-9 45
q-38 -50 -78.5 -67t-74 -6t-57 48t-27.5 96q-23 0 -39.5 5t-28.5 11zM362 -233q11 46 3 102t-22 115q-30 -11 -60 -23t-59 -26q-23 -11 -50.5 -28.5t-52.5 -39.5t-44.5 -46t-26 -48.5t4 -47t45.5 -40.5q32 -17 73 -21t79.5 5.5t68.5 33.5t41 64zM268 420q-29 13 -52.5 6.5
t-42 -25t-32 -46t-22.5 -56.5t-13 -56t-3 -44q23 0 50 12t52.5 31t46.5 42.5t31.5 48t8 47.5t-23.5 40zM180 552q2 11 12 11t12 -10q4 -26 13.5 -33.5t21 -2.5t21.5 18.5t15 29.5q7 10 15.5 8t8.5 -14q-8 -28 -25 -46.5t-36 -22.5t-35.5 10t-22.5 52z" />
    <glyph glyph-name="gbreve" unicode="&#x11f;" horiz-adv-x="273" 
d="M127 263q2 12 11.5 11.5t12.5 -10.5q5 -59 15 -109t27 -110q19 17 34 32t27 31.5t22 37t21 48.5q6 10 15 8t9 -14q-14 -33 -26 -56t-26 -41.5t-31 -34.5t-39 -35q7 -25 13.5 -47.5t12 -44.5t10 -45t6.5 -49q4 -55 -12 -89.5t-44 -51.5t-63 -19t-67 9q-56 18 -75.5 45
t-15 58.5t28.5 65.5t55.5 66t65.5 61t58 49q-8 28 -15 60t-15 64q-3 -13 -12.5 -31t-21.5 -33.5t-26.5 -25.5t-27.5 -8q-13 3 -22.5 14.5t-14.5 28.5t-5 37.5t6 41.5q7 26 19.5 42t28 23t31.5 4.5t31 -12.5zM58 -292q78 -23 119 10.5t39 111.5q-2 45 -12.5 88t-23.5 87
q-25 -20 -55 -45.5t-57 -53t-48 -55t-27 -51.5q-9 -35 11 -58.5t54 -33.5zM58 84q11 -4 22.5 8.5t22 31.5t19 40t11.5 33q-10 11 -22 19t-24.5 7.5t-24.5 -12.5t-21 -40q-4 -10 -5 -23.5t1.5 -26.5t7.5 -23.5t13 -13.5zM40 357q2 11 12 11t12 -10q4 -26 13.5 -33.5t21 -2.5
t21.5 18.5t15 29.5q7 10 15.5 8t8.5 -14q-8 -28 -25 -46.5t-36 -22.5t-35.5 10t-22.5 52z" />
    <glyph glyph-name="Gdotaccent" unicode="&#x120;" horiz-adv-x="431" 
d="M12 188q-12 7 -7.5 17t16.5 6q11 -5 24.5 -9t34.5 -5q-1 28 5 62t18 67t30 61.5t40 46.5t49 21.5t57 -14.5t37 -44t-3 -55.5t-33 -59t-52.5 -53.5t-62 -39t-61.5 -15v-1q5 -49 19 -77.5t33.5 -40.5t42 -9.5t44 15.5t40.5 35.5t32 49.5q0 25 3 47t14 41q5 8 13 8t11 -10
q1 -23 -3.5 -47t-14.5 -47q0 -34 6 -61t14 -61l63 23q12 0 14 -9t-8 -15l-63 -23q16 -58 26 -117t-5 -116q-14 -51 -48.5 -80t-78.5 -39t-91 -3t-84 28q-40 23 -53.5 49.5t-8 54t26 55t48.5 52t59.5 45.5t59.5 35q29 15 59.5 27.5t61.5 25.5q-5 26 -10 46t-9 45
q-38 -50 -78.5 -67t-74 -6t-57 48t-27.5 96q-23 0 -39.5 5t-28.5 11zM362 -233q11 46 3 102t-22 115q-30 -11 -60 -23t-59 -26q-23 -11 -50.5 -28.5t-52.5 -39.5t-44.5 -46t-26 -48.5t4 -47t45.5 -40.5q32 -17 73 -21t79.5 5.5t68.5 33.5t41 64zM268 420q-29 13 -52.5 6.5
t-42 -25t-32 -46t-22.5 -56.5t-13 -56t-3 -44q23 0 50 12t52.5 31t46.5 42.5t31.5 48t8 47.5t-23.5 40zM239 534q6 -8 4.5 -15t-6.5 -11.5t-12 -4.5t-12 8q-5 7 -3.5 13t6 9.5t11 4t12.5 -3.5z" />
    <glyph glyph-name="gdotaccent" unicode="&#x121;" horiz-adv-x="273" 
d="M127 263q2 12 11.5 11.5t12.5 -10.5q5 -59 15 -109t27 -110q19 17 34 32t27 31.5t22 37t21 48.5q6 10 15 8t9 -14q-14 -33 -26 -56t-26 -41.5t-31 -34.5t-39 -35q7 -25 13.5 -47.5t12 -44.5t10 -45t6.5 -49q4 -55 -12 -89.5t-44 -51.5t-63 -19t-67 9q-56 18 -75.5 45
t-15 58.5t28.5 65.5t55.5 66t65.5 61t58 49q-8 28 -15 60t-15 64q-3 -13 -12.5 -31t-21.5 -33.5t-26.5 -25.5t-27.5 -8q-13 3 -22.5 14.5t-14.5 28.5t-5 37.5t6 41.5q7 26 19.5 42t28 23t31.5 4.5t31 -12.5zM58 -292q78 -23 119 10.5t39 111.5q-2 45 -12.5 88t-23.5 87
q-25 -20 -55 -45.5t-57 -53t-48 -55t-27 -51.5q-9 -35 11 -58.5t54 -33.5zM58 84q11 -4 22.5 8.5t22 31.5t19 40t11.5 33q-10 11 -22 19t-24.5 7.5t-24.5 -12.5t-21 -40q-4 -10 -5 -23.5t1.5 -26.5t7.5 -23.5t13 -13.5zM95 326q6 -8 4.5 -15t-6.5 -11.5t-12 -4.5t-12 8
q-5 7 -3.5 13t6 9.5t11 4t12.5 -3.5z" />
    <glyph glyph-name="Gcommaaccent" unicode="&#x122;" horiz-adv-x="431" 
d="M12 188q-12 7 -7.5 17t16.5 6q11 -5 24.5 -9t34.5 -5q-1 28 5 62t18 67t30 61.5t40 46.5t49 21.5t57 -14.5t37 -44t-3 -55.5t-33 -59t-52.5 -53.5t-62 -39t-61.5 -15v-1q5 -49 19 -77.5t33.5 -40.5t42 -9.5t44 15.5t40.5 35.5t32 49.5q0 25 3 47t14 41q5 8 13 8t11 -10
q1 -23 -3.5 -47t-14.5 -47q0 -34 6 -61t14 -61l63 23q12 0 14 -9t-8 -15l-63 -23q16 -58 26 -117t-5 -116q-14 -51 -48.5 -80t-78.5 -39t-91 -3t-84 28q-40 23 -53.5 49.5t-8 54t26 55t48.5 52t59.5 45.5t59.5 35q29 15 59.5 27.5t61.5 25.5q-5 26 -10 46t-9 45
q-38 -50 -78.5 -67t-74 -6t-57 48t-27.5 96q-23 0 -39.5 5t-28.5 11zM362 -233q11 46 3 102t-22 115q-30 -11 -60 -23t-59 -26q-23 -11 -50.5 -28.5t-52.5 -39.5t-44.5 -46t-26 -48.5t4 -47t45.5 -40.5q32 -17 73 -21t79.5 5.5t68.5 33.5t41 64zM268 420q-29 13 -52.5 6.5
t-42 -25t-32 -46t-22.5 -56.5t-13 -56t-3 -44q23 0 50 12t52.5 31t46.5 42.5t31.5 48t8 47.5t-23.5 40zM233.004 498.997q-1 -7 -6 -11q-4.99902 -3.99902 -10.999 -4.99902t-11.499 2q-5.5 2.99902 -8.5 9.99902q-4 9.99902 -2.5 21.999q1.5 11.999 5.5 23.998
t9.49902 21.999q5.5 9.99902 10.5 16.999q8.99902 4.99902 14.999 -1.5q5.99902 -6.5 1 -14.499q-8 -10 -12.999 -23.499q-5 -13.499 -5 -24.498q13.999 0 15.999 -15.999v-1z" />
    <glyph glyph-name="gcommaaccent" unicode="&#x123;" horiz-adv-x="273" 
d="M127 263q2 12 11.5 11.5t12.5 -10.5q5 -59 15 -109t27 -110q19 17 34 32t27 31.5t22 37t21 48.5q6 10 15 8t9 -14q-14 -33 -26 -56t-26 -41.5t-31 -34.5t-39 -35q7 -25 13.5 -47.5t12 -44.5t10 -45t6.5 -49q4 -55 -12 -89.5t-44 -51.5t-63 -19t-67 9q-56 18 -75.5 45
t-15 58.5t28.5 65.5t55.5 66t65.5 61t58 49q-8 28 -15 60t-15 64q-3 -13 -12.5 -31t-21.5 -33.5t-26.5 -25.5t-27.5 -8q-13 3 -22.5 14.5t-14.5 28.5t-5 37.5t6 41.5q7 26 19.5 42t28 23t31.5 4.5t31 -12.5zM58 -292q78 -23 119 10.5t39 111.5q-2 45 -12.5 88t-23.5 87
q-25 -20 -55 -45.5t-57 -53t-48 -55t-27 -51.5q-9 -35 11 -58.5t54 -33.5zM58 84q11 -4 22.5 8.5t22 31.5t19 40t11.5 33q-10 11 -22 19t-24.5 7.5t-24.5 -12.5t-21 -40q-4 -10 -5 -23.5t1.5 -26.5t7.5 -23.5t13 -13.5zM78 394q-11 -26 -10 -45.5t19 -42.5q5 -9 -1.5 -16
t-15.5 -1q-24 28 -27 59t12 54q8 9 16 6t7 -14z" />
    <glyph glyph-name="Hcircumflex" unicode="&#x124;" horiz-adv-x="581" 
d="M581 89q-16 -26 -36 -48.5t-40.5 -30.5t-39 4t-32.5 55q-6 19 -10 39.5t-6 43.5q-60 -9 -120.5 -18t-120.5 -21q-3 -31 -4 -59t3 -52q6 0 10 -6t-3 -14l-5 -6q-8 -7 -18 1q-7 7 -9 23t-2 35.5t1.5 39t3.5 33.5l-59 -14q-7 0 -10.5 2.5t-4.5 6.5t1.5 8.5t7.5 6.5
q17 5 33.5 8.5t33.5 7.5q4 39 10 76t11.5 73t8 71t0.5 71q-35 -1 -65.5 -20.5t-52 -47t-31.5 -58.5t-2.5 -54t35.5 -33t81 3q11 0 13.5 -9t-7.5 -15q-16 -4 -33 -7t-34 -3q-50 8 -69 33t-16 57.5t22.5 67.5t48 62t61 41.5t59.5 6.5q17 -6 15.5 -32.5t-5.5 -76.5
q-5 -54 -12.5 -104.5t-13.5 -97.5q60 12 118.5 21t118.5 18q-3 66 2 131.5t7 112.5q1 6 4.5 9t8 2.5t8 -4.5t3.5 -10q-1 -20 -3 -47t-3.5 -58.5t-2 -65t1.5 -65.5l51 9q12 -2 14 -10.5t-9 -14.5l-55 -10q2 -19 4 -36t6 -33q10 -44 27.5 -50.5t36 8.5t36 42.5t28.5 51.5
q7 14 14 28.5t10 26.5q7 13 15 10t8 -16q-5 -20 -17.5 -46t-29.5 -53zM284 414q-3 -4 -8 -5t-9 0.5t-6 5t0 8.5q5 10 11 25t12 29.5t12 25t12 12.5q5 1 9 1t9 -5q8 -8 16 -21.5t14.5 -26.5t11 -23t5.5 -13q4 -12 -4.5 -15.5t-13.5 3.5q-8 12 -17.5 32t-21.5 40
q-8 -14 -14.5 -32.5t-17.5 -40.5z" />
    <glyph glyph-name="hcircumflex" unicode="&#x125;" horiz-adv-x="328" 
d="M201 24q-8 15 -15.5 44.5t-14 59.5t-13 52.5t-10.5 22.5q-5 0 -18.5 -22.5t-28.5 -53t-28 -61.5t-16 -48q-1 -6 -4.5 -9.5t-8 -3t-8.5 4t-5 11.5q-5 36 -11 85.5t-9 103.5t-2.5 108.5t8 100t23 78.5t41.5 44q23 10 43.5 -8t23.5 -53q4 -31 -7 -72.5t-28 -85t-37.5 -84.5
t-35.5 -70q1 -17 4 -43.5t5 -54.5q30 79 55.5 121.5t46.5 44.5q15 1 24.5 -24.5t17 -60.5t15 -69.5t17.5 -50.5q2 -2 3 -2q10 -5 26 9t31 33.5t27 39.5t16 28q6 14 13 28.5t11 26.5q7 13 15 10t8 -16q-5 -20 -17.5 -46t-29.5 -53q-6 -9 -18 -25t-27 -31t-32 -24t-32 -5
q-3 0 -6 3q-1 0 -4.5 5.5t-7.5 11.5zM37 216q15 31 34.5 72.5t34 82.5t19 76t-9.5 55q-12 17 -30 8t-32 -48q-12 -38 -15.5 -77t-2.5 -77zM57 560q-3 -4 -8 -5t-9 0.5t-6 5t0 8.5q5 10 11 25t12 29.5t12 25t12 12.5q5 1 9 1t9 -5q8 -8 16 -21.5t14.5 -26.5t11 -23t5.5 -13
q4 -12 -4.5 -15.5t-13.5 3.5q-8 12 -17.5 32t-21.5 40q-8 -14 -14.5 -32.5t-17.5 -40.5z" />
    <glyph glyph-name="Hbar" unicode="&#x126;" horiz-adv-x="581" 
d="M94 94q-7 0 -10.5 2.5t-4.5 6.5t1.5 8.5t7.5 6.5q17 5 33.5 8.5t33.5 7.5l7 48q-38 -4 -68.5 -1t-50.5 14q-29 17 -35.5 44.5t2 58t29 61t47 53t55.5 33.5t54 4q16 -5 16 -35q0 -20 -1.5 -40.5t-4 -44.5t-6.5 -53t-10 -65q51 7 109 19t117 23q2 48 5 91.5t5 76.5
q1 6 4.5 9t8 2.5t8 -4.5t3.5 -10q-2 -29 -4.5 -71t-3.5 -89l49 7q11 0 13.5 -8.5t-7.5 -15.5q-14 -2 -27.5 -4t-27.5 -5v-25.5t1 -24.5l51 9q12 -2 14 -10.5t-9 -14.5l-55 -10q2 -19 4 -36t6 -33q10 -44 27.5 -50.5t36 8.5t36 42.5t28.5 51.5q7 14 14 28.5t10 26.5
q7 13 15 10t8 -16q-5 -20 -17.5 -46t-29.5 -53q-16 -26 -36 -48.5t-40.5 -30.5t-39 4t-32.5 55q-6 19 -10 39.5t-6 43.5l-120 -18t-120 -21q-4 -31 -5 -59t3 -52q6 0 10 -6t-3 -14l-5 -6q-8 -7 -18 1q-7 7 -9 23t-2 35.5t1.5 39t3.5 33.5zM165 207q6 39 10.5 70t7 57t3 48
t-0.5 43q-27 -1 -52.5 -13.5t-45.5 -32t-34.5 -43.5t-20 -47t-0.5 -42t22 -29q18 -11 47 -12.5t64 1.5zM415 227q-59 -11 -118 -23t-111 -19q-2 -12 -3.5 -24t-3.5 -23q60 12 118.5 21t118.5 18q-1 13 -1 25.5v24.5z" />
    <glyph glyph-name="hbar" unicode="&#x127;" horiz-adv-x="328" 
d="M201 24q-8 15 -15.5 44.5t-14 59.5t-13 52.5t-10.5 22.5q-5 0 -18.5 -22.5t-28.5 -53t-28 -61.5t-16 -48q-1 -6 -4.5 -9.5t-8 -3t-8.5 4t-5 11.5q-5 36 -11 85.5t-9 103.5t-2.5 108.5t8 100t23 78.5t41.5 44q23 10 43.5 -8t23.5 -53q4 -31 -7 -72.5t-28 -85t-37.5 -84.5
t-35.5 -70q1 -17 4 -43.5t5 -54.5q30 79 55.5 121.5t46.5 44.5q15 1 24.5 -24.5t17 -60.5t15 -69.5t17.5 -50.5q2 -2 3 -2q10 -5 26 9t31 33.5t27 39.5t16 28q6 14 13 28.5t11 26.5q7 13 15 10t8 -16q-5 -20 -17.5 -46t-29.5 -53q-6 -9 -18 -25t-27 -31t-32 -24t-32 -5
q-3 0 -6 3q-1 0 -4.5 5.5t-7.5 11.5zM37 216q15 31 34.5 72.5t34 82.5t19 76t-9.5 55q-12 17 -30 8t-32 -48q-12 -38 -15.5 -77t-2.5 -77zM-41 350q-11 2 -12 10.5t10 13.5q31 1 62 4t62 4q6 0 9.5 -3.5t4 -8t-2.5 -8t-9 -4.5q-31 -1 -61.5 -4t-62.5 -4z" />
    <glyph glyph-name="Itilde" unicode="&#x128;" 
d="M228 188q14 3 16.5 -7.5t-15.5 -16.5q0 -30 -4 -58.5t-13 -51.5t-24 -39t-36 -22q-18 -5 -40.5 -2t-43.5 11.5t-38.5 22t-24.5 29.5q-1 11 7 14.5t16 -5.5q3 -8 14 -18.5t27.5 -18.5t36 -12t38.5 2q18 5 30 19t19 34t10 43.5t3 47.5q-26 -5 -57.5 -1t-59.5 17t-49.5 34.5
t-28.5 53.5q-6 30 12.5 65t47 65t58.5 49.5t47 19.5q9 0 11 -4q6 -10 13 -40t13 -69.5t10.5 -82.5t4.5 -79zM35 270q6 -24 24.5 -42.5t42.5 -29.5t51.5 -15t52.5 2q0 34 -3.5 73t-8.5 74.5t-11.5 63t-11.5 38.5q-16 0 -41.5 -18t-48 -44t-37 -54t-9.5 -48zM114 517
q-5 -11 -15.5 -9t-8.5 15q3 11 11 22t17 17q14 10 23 7t15 -11.5t10.5 -18.5t9 -14t10 1t13.5 27q6 10 15 7.5t9 -13.5q-20 -53 -42.5 -49.5t-44.5 47.5q-8 -3 -14 -11.5t-8 -16.5z" />
    <glyph glyph-name="itilde" unicode="&#x129;" horiz-adv-x="170" 
d="M70 29q10 -5 26 9t31 33.5t27 39.5t16 28q6 14 13 28.5t11 26.5q7 13 15 10t8 -16q-5 -20 -17.5 -46t-29.5 -53q-6 -9 -18.5 -25.5t-28 -32t-32.5 -25t-32 -5.5q-11 3 -17.5 18.5t-10.5 36.5t-5.5 44t-1.5 41q-1 26 -0.5 52.5t0.5 44.5q1 6 5 9t8.5 2.5t8 -4t3.5 -9.5
q0 -8 -0.5 -28.5t-0.5 -43.5q1 -17 2.5 -39.5t4 -43t6 -35.5t9.5 -17zM2 300q-5 -11 -15.5 -9t-8.5 15q3 11 11 22t17 17q14 10 23 7t15 -11.5t10.5 -18.5t9 -14t10 1t13.5 27q6 10 15 7.5t9 -13.5q-20 -53 -42.5 -49.5t-44.5 47.5q-8 -3 -14 -11.5t-8 -16.5z" />
    <glyph glyph-name="Imacron" unicode="&#x12a;" 
d="M228 188q14 3 16.5 -7.5t-15.5 -16.5q0 -30 -4 -58.5t-13 -51.5t-24 -39t-36 -22q-18 -5 -40.5 -2t-43.5 11.5t-38.5 22t-24.5 29.5q-1 11 7 14.5t16 -5.5q3 -8 14 -18.5t27.5 -18.5t36 -12t38.5 2q18 5 30 19t19 34t10 43.5t3 47.5q-26 -5 -57.5 -1t-59.5 17t-49.5 34.5
t-28.5 53.5q-6 30 12.5 65t47 65t58.5 49.5t47 19.5q9 0 11 -4q6 -10 13 -40t13 -69.5t10.5 -82.5t4.5 -79zM35 270q6 -24 24.5 -42.5t42.5 -29.5t51.5 -15t52.5 2q0 34 -3.5 73t-8.5 74.5t-11.5 63t-11.5 38.5q-16 0 -41.5 -18t-48 -44t-37 -54t-9.5 -48zM81 511
q-11 2 -12 10.5t10 13.5q31 1 62 4t62 4q6 0 9.5 -3.5t4 -8t-2.5 -8t-9 -4.5q-31 -1 -61.5 -4t-62.5 -4z" />
    <glyph glyph-name="imacron" unicode="&#x12b;" horiz-adv-x="170" 
d="M70 29q10 -5 26 9t31 33.5t27 39.5t16 28q6 14 13 28.5t11 26.5q7 13 15 10t8 -16q-5 -20 -17.5 -46t-29.5 -53q-6 -9 -18.5 -25.5t-28 -32t-32.5 -25t-32 -5.5q-11 3 -17.5 18.5t-10.5 36.5t-5.5 44t-1.5 41q-1 26 -0.5 52.5t0.5 44.5q1 6 5 9t8.5 2.5t8 -4t3.5 -9.5
q0 -8 -0.5 -28.5t-0.5 -43.5q1 -17 2.5 -39.5t4 -43t6 -35.5t9.5 -17zM-28 309q-11 2 -12 10.5t10 13.5q31 1 62 4t62 4q6 0 9.5 -3.5t4 -8t-2.5 -8t-9 -4.5q-31 -1 -61.5 -4t-62.5 -4z" />
    <glyph glyph-name="Ibreve" unicode="&#x12c;" 
d="M228 188q14 3 16.5 -7.5t-15.5 -16.5q0 -30 -4 -58.5t-13 -51.5t-24 -39t-36 -22q-18 -5 -40.5 -2t-43.5 11.5t-38.5 22t-24.5 29.5q-1 11 7 14.5t16 -5.5q3 -8 14 -18.5t27.5 -18.5t36 -12t38.5 2q18 5 30 19t19 34t10 43.5t3 47.5q-26 -5 -57.5 -1t-59.5 17t-49.5 34.5
t-28.5 53.5q-6 30 12.5 65t47 65t58.5 49.5t47 19.5q9 0 11 -4q6 -10 13 -40t13 -69.5t10.5 -82.5t4.5 -79zM35 270q6 -24 24.5 -42.5t42.5 -29.5t51.5 -15t52.5 2q0 34 -3.5 73t-8.5 74.5t-11.5 63t-11.5 38.5q-16 0 -41.5 -18t-48 -44t-37 -54t-9.5 -48zM84 552
q2 11 12 11t12 -10q4 -26 13.5 -33.5t21 -2.5t21.5 18.5t15 29.5q7 10 15.5 8t8.5 -14q-8 -28 -25 -46.5t-36 -22.5t-35.5 10t-22.5 52z" />
    <glyph glyph-name="ibreve" unicode="&#x12d;" horiz-adv-x="170" 
d="M70 29q10 -5 26 9t31 33.5t27 39.5t16 28q6 14 13 28.5t11 26.5q7 13 15 10t8 -16q-5 -20 -17.5 -46t-29.5 -53q-6 -9 -18.5 -25.5t-28 -32t-32.5 -25t-32 -5.5q-11 3 -17.5 18.5t-10.5 36.5t-5.5 44t-1.5 41q-1 26 -0.5 52.5t0.5 44.5q1 6 5 9t8.5 2.5t8 -4t3.5 -9.5
q0 -8 -0.5 -28.5t-0.5 -43.5q1 -17 2.5 -39.5t4 -43t6 -35.5t9.5 -17zM-7 366q2 11 12 11t12 -10q4 -26 13.5 -33.5t21 -2.5t21.5 18.5t15 29.5q7 10 15.5 8t8.5 -14q-8 -28 -25 -46.5t-36 -22.5t-35.5 10t-22.5 52z" />
    <glyph glyph-name="Iogonek" unicode="&#x12e;" 
d="M228 188q14 3 16.5 -7.5t-15.5 -16.5q0 -30 -4 -58.5t-13 -51.5t-24 -39t-36 -22q-18 -5 -40.5 -2t-43.5 11.5t-38.5 22t-24.5 29.5q-1 11 7 14.5t16 -5.5q3 -8 14 -18.5t27.5 -18.5t36 -12t38.5 2q18 5 30 19t19 34t10 43.5t3 47.5q-26 -5 -57.5 -1t-59.5 17t-49.5 34.5
t-28.5 53.5q-6 30 12.5 65t47 65t58.5 49.5t47 19.5q9 0 11 -4q6 -10 13 -40t13 -69.5t10.5 -82.5t4.5 -79zM35 270q6 -24 24.5 -42.5t42.5 -29.5t51.5 -15t52.5 2q0 34 -3.5 73t-8.5 74.5t-11.5 63t-11.5 38.5q-16 0 -41.5 -18t-48 -44t-37 -54t-9.5 -48zM167 27
q10 8 17.5 0.5t-0.5 -17.5q-13 -13 -25 -27.5t-15 -27t7 -22t40 -11.5q10 -3 10 -12.5t-11 -11.5q-38 3 -54 16t-15.5 31.5t13.5 40t33 41.5z" />
    <glyph glyph-name="iogonek" unicode="&#x12f;" horiz-adv-x="170" 
d="M70 29q10 -5 26 9t31 33.5t27 39.5t16 28q6 14 13 28.5t11 26.5q7 13 15 10t8 -16q-5 -20 -17.5 -46t-29.5 -53q-6 -9 -18.5 -25.5t-28 -32t-32.5 -25t-32 -5.5q-11 3 -17.5 18.5t-10.5 36.5t-5.5 44t-1.5 41q-1 26 -0.5 52.5t0.5 44.5q1 6 5 9t8.5 2.5t8 -4t3.5 -9.5
q0 -8 -0.5 -28.5t-0.5 -43.5q1 -17 2.5 -39.5t4 -43t6 -35.5t9.5 -17zM53 315q-3 -12 -14.5 -12t-13.5 13v1q1 7 5.5 10t9.5 2.5t9 -4t4 -10.5zM113 54q10 8 17.5 0.5t-0.5 -17.5q-13 -13 -25 -27.5t-15 -27t7 -22t40 -11.5q10 -3 10 -12.5t-11 -11.5q-38 3 -54 16
t-15.5 31.5t13.5 40t33 41.5z" />
    <glyph glyph-name="Idotaccent" unicode="&#x130;" 
d="M228 188q14 3 16.5 -7.5t-15.5 -16.5q0 -30 -4 -58.5t-13 -51.5t-24 -39t-36 -22q-18 -5 -40.5 -2t-43.5 11.5t-38.5 22t-24.5 29.5q-1 11 7 14.5t16 -5.5q3 -8 14 -18.5t27.5 -18.5t36 -12t38.5 2q18 5 30 19t19 34t10 43.5t3 47.5q-26 -5 -57.5 -1t-59.5 17t-49.5 34.5
t-28.5 53.5q-6 30 12.5 65t47 65t58.5 49.5t47 19.5q9 0 11 -4q6 -10 13 -40t13 -69.5t10.5 -82.5t4.5 -79zM35 270q6 -24 24.5 -42.5t42.5 -29.5t51.5 -15t52.5 2q0 34 -3.5 73t-8.5 74.5t-11.5 63t-11.5 38.5q-16 0 -41.5 -18t-48 -44t-37 -54t-9.5 -48zM155 534
q6 -8 4.5 -15t-6.5 -11.5t-12 -4.5t-12 8q-5 7 -3.5 13t6 9.5t11 4t12.5 -3.5z" />
    <glyph glyph-name="dotlessi" unicode="&#x131;" horiz-adv-x="170" 
d="M70 29q10 -5 26 9t31 33.5t27 39.5t16 28q6 14 13 28.5t11 26.5q7 13 15 10t8 -16q-5 -20 -17.5 -46t-29.5 -53q-6 -9 -18.5 -25.5t-28 -32t-32.5 -25t-32 -5.5q-11 3 -17.5 18.5t-10.5 36.5t-5.5 44t-1.5 41q-1 26 -0.5 52.5t0.5 44.5q1 6 5 9t8.5 2.5t8 -4t3.5 -9.5
q0 -8 -0.5 -28.5t-0.5 -43.5q1 -17 2.5 -39.5t4 -43t6 -35.5t9.5 -17z" />
    <glyph glyph-name="Jcircumflex" unicode="&#x134;" horiz-adv-x="382" 
d="M209 456q-1 7 2 11t7.5 4.5t8.5 -2t6 -8.5q7 -60 26.5 -128.5t37.5 -140.5l61 30q16 -8 6 -21q-16 -7 -31 -14.5t-30 -15.5q18 -75 25 -123.5t8 -86.5q1 -20 0 -49t-7 -59.5t-18.5 -58t-33.5 -45.5q-35 -28 -75 -31t-76.5 12t-66 44.5t-44.5 67t-11 78.5t35 79
q48 61 106.5 102.5t130.5 80.5q-18 69 -38.5 136t-28.5 138zM312 -45q-1 51 -9 101.5t-22 101.5q-24 -13 -55 -31.5t-61.5 -40.5t-59 -48t-48.5 -54q-26 -37 -28 -74t12 -68.5t41 -55.5t58.5 -36t64 -9t57.5 26q18 18 28 40.5t15.5 47t6.5 50t0 50.5zM180 487q-3 -4 -8 -5
t-9 0.5t-6 5t0 8.5q5 10 11 25t12 29.5t12 25t12 12.5q5 1 9 1t9 -5q8 -8 16 -21.5t14.5 -26.5t11 -23t5.5 -13q4 -12 -4.5 -15.5t-13.5 3.5q-8 12 -17.5 32t-21.5 40q-8 -14 -14.5 -32.5t-17.5 -40.5z" />
    <glyph glyph-name="jcircumflex" unicode="&#x135;" horiz-adv-x="186" 
d="M233 188q-8 -28 -26.5 -60.5t-41.5 -65t-47.5 -62t-44.5 -51.5q4 -29 10.5 -69.5t11 -79.5t4.5 -70t-8 -41q-20 -23 -51.5 -19t-58 26t-37.5 59t11 80q14 26 38 55.5t53 68.5q-5 27 -9.5 63.5t-8.5 75t-6 74.5t-1 62q0 13 10 13t14 -12q0 -22 2.5 -53.5t5.5 -66.5
t7 -70.5t8 -65.5q17 21 38 47t41 54.5t37 58t26 55.5q6 13 14.5 10t8.5 -16zM69 -291q5 10 5 33t-3 53t-8.5 64t-10.5 67q-20 -24 -39.5 -48t-33.5 -51q-19 -36 -10.5 -65.5t27.5 -47t41.5 -20.5t31.5 15zM-1 289q-3 -4 -8 -5t-9 0.5t-6 5t0 8.5q5 10 11 25t12 29.5t12 25
t12 12.5q5 1 9 1t9 -5q8 -8 16 -21.5t14.5 -26.5t11 -23t5.5 -13q4 -12 -4.5 -15.5t-13.5 3.5q-8 12 -17.5 32t-21.5 40q-8 -14 -14.5 -32.5t-17.5 -40.5z" />
    <glyph glyph-name="Kcommaaccent" unicode="&#x136;" horiz-adv-x="570" 
d="M156 204q10 -3 9.5 -12.5t-12.5 -11.5q-14 0 -33 0.5t-38.5 4t-37.5 12.5t-30 27t-9.5 41t15 47t32.5 47t42 42t44.5 32.5t39.5 18.5q4 1 11.5 3t15 2t14 -1.5t8.5 -5.5q6 -15 10 -39t6.5 -54t3 -64t0.5 -69q24 23 48.5 48.5t46 48.5t39 41.5t27.5 27.5q10 10 17 2
t-2 -18q-10 -9 -30.5 -31t-45 -47.5t-48.5 -51t-41 -41.5q21 10 44.5 17.5t47 11.5t45.5 2.5t40 -10.5q25 -11 40.5 -39.5t27.5 -65.5t22.5 -76.5t25.5 -72.5t37 -54t57 -20q20 1 39.5 6.5t39.5 9.5q6 0 9.5 -3.5t3.5 -8t-3 -8t-9 -4.5q-18 -4 -36 -8.5t-36 -6.5t-36 0.5
t-35 13.5q-26 18 -42 47t-27.5 63t-20 68.5t-20 64.5t-28 51.5t-42.5 28.5q-18 4 -38.5 2t-41 -9t-40 -16.5t-36.5 -18.5q-2 -58 -3.5 -104.5t-2.5 -63.5q-1 -6 -5.5 -9t-9 -3t-8 3t-1.5 9q3 21 5 62.5t2 92.5q-24 -15 -30 -16q-10 -3 -16 8q-2 13 12 24q8 6 16.5 14
t17.5 16q0 39 -1 76.5t-3 69t-5 54.5t-7 31q-18 -1 -40.5 -11t-44.5 -26t-42.5 -36.5t-33.5 -42t-17 -42t6 -36.5q9 -15 24.5 -22t32.5 -10t34 -2.5t30 0.5zM365 -29q1 7 6 11t11 5t11.5 -2t8.5 -10q4 -10 2.5 -22t-5.5 -24t-9.5 -22t-10.5 -17q-9 -5 -15 1.5t-1 14.5
q8 10 13 23.5t5 24.5q-14 0 -16 16v1z" />
    <glyph glyph-name="kcommaaccent" unicode="&#x137;" horiz-adv-x="289" 
d="M200 283q4 6 9 7t9 -0.5t5.5 -5.5t-1.5 -10q-22 -41 -55.5 -73t-65.5 -66q22 17 47 22.5t51 -9.5q18 -10 32 -31.5t25.5 -48.5t23 -56t24 -52.5t28 -38.5t36.5 -15q9 0 18 4t18 7q12 0 14 -9t-8 -15q-10 -3 -20.5 -7.5t-21.5 -4.5q-24 0 -42 14.5t-33 37t-28 50t-25 54.5
t-24.5 49.5t-26.5 35.5q-14 12 -30.5 9.5t-32.5 -12.5t-30 -23.5t-22 -23.5q2 -20 3 -36.5t1 -25.5q-1 -12 -10 -15t-11 11l-6 43q-3 -2 -5.5 -3.5t-4.5 -2.5q-3 -1 -4 -2q-7 -1 -11.5 3.5t-3.5 12.5q10 25 21 43l-16 117q-6 39 -12.5 88t-8 98.5t5 94t25.5 74.5
q8 12 22 14.5t28 -2t25.5 -15t15.5 -23.5q9 -27 6 -67t-14.5 -85.5t-29 -94.5t-37.5 -95q1 -10 4 -30t8 -45q16 20 35 38t37 36.5t34.5 38t28.5 41.5zM57 556q-12 -8 -18 -43t-6.5 -81.5t3 -96.5t11.5 -88q14 38 25.5 75t21.5 72q3 12 6.5 30.5t6 39.5t2.5 40.5t-5 33.5
q-2 4 -7 9.5t-11.5 8.5t-14.5 3.5t-14 -3.5zM149 -17q1 7 6 11t11 5t11.5 -2t8.5 -10q4 -10 2.5 -22t-5.5 -24t-9.5 -22t-10.5 -17q-9 -5 -15 1.5t-1 14.5q8 10 13 23.5t5 24.5q-14 0 -16 16v1z" />
    <glyph glyph-name="kgreenlandic" unicode="&#x138;" horiz-adv-x="289" 
d="M51 51q-6 -6 -14 -10q-7 -1 -11.5 3.5t-3.5 12.5q8 21 18 38q-8 32 -15 67t-11 68.5t-4 64.5t6 55q4 8 13 8q22 0 31.5 -17t10 -42.5t-6.5 -56.5t-17 -59l6 -30t7 -30q30 39 69 76t71 84q4 6 9 7t9 -0.5t5.5 -5.5t-1.5 -10q-22 -41 -55.5 -73t-65.5 -66q22 17 47 22.5
t51 -9.5q18 -10 32 -31.5t25.5 -48.5t23 -56t24 -52.5t28 -38.5t36.5 -15q9 0 18 4t18 7q12 0 14 -9t-8 -15q-10 -3 -20.5 -7.5t-21.5 -4.5q-24 0 -42 14.5t-33 37t-28 50t-25 54.5t-24.5 49.5t-26.5 35.5q-14 12 -30.5 9.5t-32.5 -12.5t-30 -23.5t-22 -23.5q-1 -1 -2 -1
q5 -21 10 -37.5t7 -25.5q0 -11 -9.5 -12t-14.5 8zM36 333q-5 -14 -3.5 -37t4.5 -50l4 17q1 9 1.5 21t0.5 23t-1.5 18.5t-5.5 7.5z" />
    <glyph glyph-name="Lacute" unicode="&#x139;" horiz-adv-x="417" 
d="M10 172q-9 6 -8 15.5t12 9.5q45 -11 84 -14.5t74 4.5q-3 24 -6 52t-3.5 57.5t2 57.5t10.5 51q11 31 29.5 46t40 17t44.5 -6.5t42 -24.5t32.5 -38t16.5 -46q4 -31 -14 -60.5t-46.5 -54.5t-61.5 -42.5t-59 -24.5q6 -40 6.5 -69t-7.5 -57q47 -21 88 -45.5t79 -39t74.5 -12.5
t75.5 34q9 4 15 -2.5t1 -14.5q-44 -33 -80 -38.5t-74 6.5t-82 36.5t-103 52.5q-13 -26 -33.5 -45.5t-47.5 -27.5q-25 -7 -45 -1t-32.5 20.5t-16 35t4.5 42.5q7 19 26.5 24t43 2.5t46.5 -9.5t37 -11q8 32 5 58t-5 53q-39 -10 -78.5 -6t-86.5 15zM189 347q-2 -36 0.5 -74.5
t7.5 -77.5q21 8 48.5 22t52 33t41.5 43t17 51q0 23 -14.5 48t-50.5 42q-27 13 -45.5 9.5t-30.5 -18t-18 -35.5t-8 -43zM103 -28q23 7 38.5 22.5t26.5 35.5q-18 6 -37 11.5t-35.5 7.5t-29.5 -1t-20 -13q-6 -9 -5.5 -22t8 -23.5t21.5 -16.5t33 -1zM260 597q3 6 8 7t9 -0.5
t5.5 -5.5t-1.5 -10q-15 -29 -34 -52t-42 -46q-9 -5 -15.5 1.5t-1.5 15.5q21 23 39 43.5t33 46.5z" />
    <glyph glyph-name="lacute" unicode="&#x13a;" horiz-adv-x="188" 
d="M68 52q0 -3 1 -4q2 -5 5.5 -9.5t5.5 -7.5q3 -2 8 -2q10 -5 26 9t31 33.5t27 39.5t16 28q7 14 13.5 28.5t10.5 26.5q7 13 15 10t8 -16q-5 -20 -17.5 -46t-29.5 -53q-6 -9 -18.5 -25.5t-28 -32t-32.5 -25t-32 -5.5q-6 2 -14 10.5t-12 17.5q-14 23 -22.5 60.5t-13 76.5
t-6 72.5t-1.5 50.5q0 45 3 86.5t11.5 75t22.5 57t36 32.5q23 10 43.5 -7.5t23.5 -52.5q4 -30 -6.5 -71.5t-28 -84.5t-37.5 -83.5t-35 -69.5q3 -38 10 -69t16 -51zM37 216q15 31 34.5 72.5t34 82.5t19 76t-9.5 55q-12 17 -30 8t-32 -48q-12 -38 -15.5 -77t-2.5 -77zM96 658
q3 6 8 7t9 -0.5t5.5 -5.5t-1.5 -10q-15 -29 -34 -52t-42 -46q-9 -5 -15.5 1.5t-1.5 15.5q21 23 39 43.5t33 46.5z" />
    <glyph glyph-name="Lcommaaccent" unicode="&#x13b;" horiz-adv-x="417" 
d="M10 172q-9 6 -8 15.5t12 9.5q45 -11 84 -14.5t74 4.5q-3 24 -6 52t-3.5 57.5t2 57.5t10.5 51q11 31 29.5 46t40 17t44.5 -6.5t42 -24.5t32.5 -38t16.5 -46q4 -31 -14 -60.5t-46.5 -54.5t-61.5 -42.5t-59 -24.5q6 -40 6.5 -69t-7.5 -57q47 -21 88 -45.5t79 -39t74.5 -12.5
t75.5 34q9 4 15 -2.5t1 -14.5q-44 -33 -80 -38.5t-74 6.5t-82 36.5t-103 52.5q-13 -26 -33.5 -45.5t-47.5 -27.5q-25 -7 -45 -1t-32.5 20.5t-16 35t4.5 42.5q7 19 26.5 24t43 2.5t46.5 -9.5t37 -11q8 32 5 58t-5 53q-39 -10 -78.5 -6t-86.5 15zM189 347q-2 -36 0.5 -74.5
t7.5 -77.5q21 8 48.5 22t52 33t41.5 43t17 51q0 23 -14.5 48t-50.5 42q-27 13 -45.5 9.5t-30.5 -18t-18 -35.5t-8 -43zM103 -28q23 7 38.5 22.5t26.5 35.5q-18 6 -37 11.5t-35.5 7.5t-29.5 -1t-20 -13q-6 -9 -5.5 -22t8 -23.5t21.5 -16.5t33 -1zM193 -66q1 7 6 11t11 5
t11.5 -2t8.5 -10q4 -10 2.5 -22t-5.5 -24t-9.5 -22t-10.5 -17q-9 -5 -15 1.5t-1 14.5q8 10 13 23.5t5 24.5q-14 0 -16 16v1z" />
    <glyph glyph-name="lcommaaccent" unicode="&#x13c;" horiz-adv-x="188" 
d="M68 52q0 -3 1 -4q2 -5 5.5 -9.5t5.5 -7.5q3 -2 8 -2q10 -5 26 9t31 33.5t27 39.5t16 28q7 14 13.5 28.5t10.5 26.5q7 13 15 10t8 -16q-5 -20 -17.5 -46t-29.5 -53q-6 -9 -18.5 -25.5t-28 -32t-32.5 -25t-32 -5.5q-6 2 -14 10.5t-12 17.5q-14 23 -22.5 60.5t-13 76.5
t-6 72.5t-1.5 50.5q0 45 3 86.5t11.5 75t22.5 57t36 32.5q23 10 43.5 -7.5t23.5 -52.5q4 -30 -6.5 -71.5t-28 -84.5t-37.5 -83.5t-35 -69.5q3 -38 10 -69t16 -51zM37 216q15 31 34.5 72.5t34 82.5t19 76t-9.5 55q-12 17 -30 8t-32 -48q-12 -38 -15.5 -77t-2.5 -77zM75 -52
q1 7 6 11t11 5t11.5 -2t8.5 -10q4 -10 2.5 -22t-5.5 -24t-9.5 -22t-10.5 -17q-9 -5 -15 1.5t-1 14.5q8 10 13 23.5t5 24.5q-14 0 -16 16v1z" />
    <glyph glyph-name="Lcaron" unicode="&#x13d;" horiz-adv-x="417" 
d="M10 172q-9 6 -8 15.5t12 9.5q45 -11 84 -14.5t74 4.5q-3 24 -6 52t-3.5 57.5t2 57.5t10.5 51q11 31 29.5 46t40 17t44.5 -6.5t42 -24.5t32.5 -38t16.5 -46q4 -31 -14 -60.5t-46.5 -54.5t-61.5 -42.5t-59 -24.5q6 -40 6.5 -69t-7.5 -57q47 -21 88 -45.5t79 -39t74.5 -12.5
t75.5 34q9 4 15 -2.5t1 -14.5q-44 -33 -80 -38.5t-74 6.5t-82 36.5t-103 52.5q-13 -26 -33.5 -45.5t-47.5 -27.5q-25 -7 -45 -1t-32.5 20.5t-16 35t4.5 42.5q7 19 26.5 24t43 2.5t46.5 -9.5t37 -11q8 32 5 58t-5 53q-39 -10 -78.5 -6t-86.5 15zM189 347q-2 -36 0.5 -74.5
t7.5 -77.5q21 8 48.5 22t52 33t41.5 43t17 51q0 23 -14.5 48t-50.5 42q-27 13 -45.5 9.5t-30.5 -18t-18 -35.5t-8 -43zM103 -28q23 7 38.5 22.5t26.5 35.5q-18 6 -37 11.5t-35.5 7.5t-29.5 -1t-20 -13q-6 -9 -5.5 -22t8 -23.5t21.5 -16.5t33 -1zM199 585q-5 12 4 17.5
t17 -5.5q7 -10 16.5 -32.5t17.5 -39.5q5 17 14 42t20 50q6 10 15 7.5t9 -13.5q-4 -10 -10 -28.5t-13.5 -37.5t-16 -34.5t-16.5 -18.5q-6 -1 -13 4q-6 9 -12.5 22t-12.5 26.5t-11 24.5t-8 16z" />
    <glyph glyph-name="lcaron" unicode="&#x13e;" horiz-adv-x="188" 
d="M68 52q0 -3 1 -4q2 -5 5.5 -9.5t5.5 -7.5q3 -2 8 -2q10 -5 26 9t31 33.5t27 39.5t16 28q7 14 13.5 28.5t10.5 26.5q7 13 15 10t8 -16q-5 -20 -17.5 -46t-29.5 -53q-6 -9 -18.5 -25.5t-28 -32t-32.5 -25t-32 -5.5q-6 2 -14 10.5t-12 17.5q-14 23 -22.5 60.5t-13 76.5
t-6 72.5t-1.5 50.5q0 45 3 86.5t11.5 75t22.5 57t36 32.5q23 10 43.5 -7.5t23.5 -52.5q4 -30 -6.5 -71.5t-28 -84.5t-37.5 -83.5t-35 -69.5q3 -38 10 -69t16 -51zM37 216q15 31 34.5 72.5t34 82.5t19 76t-9.5 55q-12 17 -30 8t-32 -48q-12 -38 -15.5 -77t-2.5 -77zM35 659
q-5 12 4 17.5t17 -5.5q7 -10 16.5 -32.5t17.5 -39.5q5 17 14 42t20 50q6 10 15 7.5t9 -13.5q-4 -10 -10 -28.5t-13.5 -37.5t-16 -34.5t-16.5 -18.5q-6 -1 -13 4q-6 9 -12.5 22t-12.5 26.5t-11 24.5t-8 16z" />
    <glyph glyph-name="Ldot" unicode="&#x13f;" horiz-adv-x="417" 
d="M10 172q-9 6 -8 15.5t12 9.5q45 -11 84 -14.5t74 4.5q-3 24 -6 52t-3.5 57.5t2 57.5t10.5 51q11 31 29.5 46t40 17t44.5 -6.5t42 -24.5t32.5 -38t16.5 -46q4 -31 -14 -60.5t-46.5 -54.5t-61.5 -42.5t-59 -24.5q6 -40 6.5 -69t-7.5 -57q47 -21 88 -45.5t79 -39t74.5 -12.5
t75.5 34q9 4 15 -2.5t1 -14.5q-44 -33 -80 -38.5t-74 6.5t-82 36.5t-103 52.5q-13 -26 -33.5 -45.5t-47.5 -27.5q-25 -7 -45 -1t-32.5 20.5t-16 35t4.5 42.5q7 19 26.5 24t43 2.5t46.5 -9.5t37 -11q8 32 5 58t-5 53q-39 -10 -78.5 -6t-86.5 15zM189 347q-2 -36 0.5 -74.5
t7.5 -77.5q21 8 48.5 22t52 33t41.5 43t17 51q0 23 -14.5 48t-50.5 42q-27 13 -45.5 9.5t-30.5 -18t-18 -35.5t-8 -43zM103 -28q23 7 38.5 22.5t26.5 35.5q-18 6 -37 11.5t-35.5 7.5t-29.5 -1t-20 -13q-6 -9 -5.5 -22t8 -23.5t21.5 -16.5t33 -1zM265 132q1 10 7 14t12 3
t11 -6t5 -14q-1 -8 -6 -11.5t-11 -3.5t-11.5 4t-6.5 12v2z" />
    <glyph glyph-name="ldot" unicode="&#x140;" horiz-adv-x="188" 
d="M68 52q0 -3 1 -4q2 -5 5.5 -9.5t5.5 -7.5q3 -2 8 -2q10 -5 26 9t31 33.5t27 39.5t16 28q7 14 13.5 28.5t10.5 26.5q7 13 15 10t8 -16q-5 -20 -17.5 -46t-29.5 -53q-6 -9 -18.5 -25.5t-28 -32t-32.5 -25t-32 -5.5q-6 2 -14 10.5t-12 17.5q-14 23 -22.5 60.5t-13 76.5
t-6 72.5t-1.5 50.5q0 45 3 86.5t11.5 75t22.5 57t36 32.5q23 10 43.5 -7.5t23.5 -52.5q4 -30 -6.5 -71.5t-28 -84.5t-37.5 -83.5t-35 -69.5q3 -38 10 -69t16 -51zM37 216q15 31 34.5 72.5t34 82.5t19 76t-9.5 55q-12 17 -30 8t-32 -48q-12 -38 -15.5 -77t-2.5 -77zM93 160
q1 10 7 14t12 3t11 -6t5 -14q-1 -8 -6 -11.5t-11 -3.5t-11.5 4t-6.5 12v2z" />
    <glyph glyph-name="Lslash" unicode="&#x141;" horiz-adv-x="417" 
d="M130 90q-11 -2 -14 9t8 14l138 45q6 2 10 0t6 -6t0.5 -8.5t-7.5 -7.5zM10 172q-9 6 -8 15.5t12 9.5q45 -11 84 -14.5t74 4.5q-3 24 -6 52t-3.5 57.5t2 57.5t10.5 51q11 31 29.5 46t40 17t44.5 -6.5t42 -24.5t32.5 -38t16.5 -46q4 -31 -14 -60.5t-46.5 -54.5t-61.5 -42.5
t-59 -24.5q6 -40 6.5 -69t-7.5 -57q47 -21 88 -45.5t79 -39t74.5 -12.5t75.5 34q9 4 15 -2.5t1 -14.5q-44 -33 -80 -38.5t-74 6.5t-82 36.5t-103 52.5q-13 -26 -33.5 -45.5t-47.5 -27.5q-25 -7 -45 -1t-32.5 20.5t-16 35t4.5 42.5q7 19 26.5 24t43 2.5t46.5 -9.5t37 -11
q8 32 5 58t-5 53q-39 -10 -78.5 -6t-86.5 15zM189 347q-2 -36 0.5 -74.5t7.5 -77.5q21 8 48.5 22t52 33t41.5 43t17 51q0 23 -14.5 48t-50.5 42q-27 13 -45.5 9.5t-30.5 -18t-18 -35.5t-8 -43zM103 -28q23 7 38.5 22.5t26.5 35.5q-18 6 -37 11.5t-35.5 7.5t-29.5 -1t-20 -13
q-6 -9 -5.5 -22t8 -23.5t21.5 -16.5t33 -1z" />
    <glyph glyph-name="lslash" unicode="&#x142;" horiz-adv-x="188" 
d="M27 36q-10 -7 -17.5 1t1.5 17l101 103q4 4 9 4.5t8.5 -2t4 -7.5t-3.5 -10zM68 52q0 -3 1 -4q2 -5 5.5 -9.5t5.5 -7.5q3 -2 8 -2q10 -5 26 9t31 33.5t27 39.5t16 28q7 14 13.5 28.5t10.5 26.5q7 13 15 10t8 -16q-5 -20 -17.5 -46t-29.5 -53q-6 -9 -18.5 -25.5t-28 -32
t-32.5 -25t-32 -5.5q-6 2 -14 10.5t-12 17.5q-14 23 -22.5 60.5t-13 76.5t-6 72.5t-1.5 50.5q0 45 3 86.5t11.5 75t22.5 57t36 32.5q23 10 43.5 -7.5t23.5 -52.5q4 -30 -6.5 -71.5t-28 -84.5t-37.5 -83.5t-35 -69.5q3 -38 10 -69t16 -51zM37 216q15 31 34.5 72.5t34 82.5
t19 76t-9.5 55q-12 17 -30 8t-32 -48q-12 -38 -15.5 -77t-2.5 -77z" />
    <glyph glyph-name="Nacute" unicode="&#x143;" horiz-adv-x="514" 
d="M210 -13q-7 15 -11 36.5t-5.5 44.5t-1.5 46.5t1 43.5h-1q-19 -2 -42 -4t-46 0.5t-44.5 11t-37.5 27.5q-18 21 -18 50t11.5 60t32 60.5t45 51.5t49 33.5t44.5 6.5t32 -29.5t11 -74.5q0 -19 -0.5 -30.5t-1.5 -25t-2.5 -32.5t-3.5 -53q-2 -27 -3 -49t-0.5 -42.5t1.5 -41
t4 -44.5q6 15 14 42.5t17.5 61t20 71t23 72t27 63t30.5 45.5q3 4 10.5 9t15.5 7.5t16 1t12 -11.5q9 -34 12 -85.5t7.5 -108.5t15 -111t33.5 -92t62.5 -53t103.5 7q6 0 9.5 -3.5t4 -8t-2.5 -8.5t-9 -5q-69 -22 -113.5 -7t-70.5 53t-38.5 92t-18 112t-8 112.5t-9.5 92.5
q-19 -15 -34.5 -42.5t-28.5 -62t-24 -73t-22 -76t-22 -71t-24 -58.5q0 -9 -9 -14.5t-13 3.5zM41 209q15 -19 39 -25.5t47.5 -6.5t42.5 2.5t24 1.5q1 28 2.5 48.5t2.5 39t2.5 38.5t3.5 48q4 53 -11 69t-38.5 6t-50.5 -38t-46.5 -62t-26.5 -67.5t9 -53.5zM378 544q3 6 8 7
t9 -0.5t5.5 -5.5t-1.5 -10q-15 -29 -34 -52t-42 -46q-9 -5 -15.5 1.5t-1.5 15.5q21 23 39 43.5t33 46.5z" />
    <glyph glyph-name="nacute" unicode="&#x144;" horiz-adv-x="340" 
d="M299 37q-33 -33 -57 -26q-14 3 -23 16.5t-15 33t-9.5 41t-7.5 40.5t-8 32.5t-11 16.5q-10 3 -20.5 -9t-21 -32t-20.5 -44t-17.5 -46t-12.5 -37t-6 -17q-4 -9 -13.5 -11t-14.5 9q-6 22 -10.5 53.5t-6.5 64.5t-2 63t2 51q4 16 14 12.5t12 -13.5q-3 -43 -2.5 -89t8.5 -91
q2 8 8 24t15 35.5t20 39.5t23.5 36t26 25t26.5 6q10 -2 17 -16t12.5 -34t9 -43t8 -42.5t10 -32.5t14.5 -14q8 -2 17 3.5t19 15.5q19 21 35 46t21 35q6 14 13 28.5t11 26.5q6 13 14.5 10t8.5 -16q-5 -20 -17.5 -46t-29.5 -53q-5 -8 -15.5 -23.5t-24.5 -28.5zM162 353q3 6 8 7
t9 -0.5t5.5 -5.5t-1.5 -10q-15 -29 -34 -52t-42 -46q-9 -5 -15.5 1.5t-1.5 15.5q21 23 39 43.5t33 46.5z" />
    <glyph glyph-name="Ncommaaccent" unicode="&#x145;" horiz-adv-x="514" 
d="M210 -13q-7 15 -11 36.5t-5.5 44.5t-1.5 46.5t1 43.5h-1q-19 -2 -42 -4t-46 0.5t-44.5 11t-37.5 27.5q-18 21 -18 50t11.5 60t32 60.5t45 51.5t49 33.5t44.5 6.5t32 -29.5t11 -74.5q0 -19 -0.5 -30.5t-1.5 -25t-2.5 -32.5t-3.5 -53q-2 -27 -3 -49t-0.5 -42.5t1.5 -41
t4 -44.5q6 15 14 42.5t17.5 61t20 71t23 72t27 63t30.5 45.5q3 4 10.5 9t15.5 7.5t16 1t12 -11.5q9 -34 12 -85.5t7.5 -108.5t15 -111t33.5 -92t62.5 -53t103.5 7q6 0 9.5 -3.5t4 -8t-2.5 -8.5t-9 -5q-69 -22 -113.5 -7t-70.5 53t-38.5 92t-18 112t-8 112.5t-9.5 92.5
q-19 -15 -34.5 -42.5t-28.5 -62t-24 -73t-22 -76t-22 -71t-24 -58.5q0 -9 -9 -14.5t-13 3.5zM41 209q15 -19 39 -25.5t47.5 -6.5t42.5 2.5t24 1.5q1 28 2.5 48.5t2.5 39t2.5 38.5t3.5 48q4 53 -11 69t-38.5 6t-50.5 -38t-46.5 -62t-26.5 -67.5t9 -53.5zM338 -35q1 7 6 11
t11 5t11.5 -2t8.5 -10q4 -10 2.5 -22t-5.5 -24t-9.5 -22t-10.5 -17q-9 -5 -15 1.5t-1 14.5q8 10 13 23.5t5 24.5q-14 0 -16 16v1z" />
    <glyph glyph-name="ncommaaccent" unicode="&#x146;" horiz-adv-x="340" 
d="M299 37q-33 -33 -57 -26q-14 3 -23 16.5t-15 33t-9.5 41t-7.5 40.5t-8 32.5t-11 16.5q-10 3 -20.5 -9t-21 -32t-20.5 -44t-17.5 -46t-12.5 -37t-6 -17q-4 -9 -13.5 -11t-14.5 9q-6 22 -10.5 53.5t-6.5 64.5t-2 63t2 51q4 16 14 12.5t12 -13.5q-3 -43 -2.5 -89t8.5 -91
q2 8 8 24t15 35.5t20 39.5t23.5 36t26 25t26.5 6q10 -2 17 -16t12.5 -34t9 -43t8 -42.5t10 -32.5t14.5 -14q8 -2 17 3.5t19 15.5q19 21 35 46t21 35q6 14 13 28.5t11 26.5q6 13 14.5 10t8.5 -16q-5 -20 -17.5 -46t-29.5 -53q-5 -8 -15.5 -23.5t-24.5 -28.5zM139 -21
q1 7 6 11t11 5t11.5 -2t8.5 -10q4 -10 2.5 -22t-5.5 -24t-9.5 -22t-10.5 -17q-9 -5 -15 1.5t-1 14.5q8 10 13 23.5t5 24.5q-14 0 -16 16v1z" />
    <glyph glyph-name="Ncaron" unicode="&#x147;" horiz-adv-x="514" 
d="M210 -13q-7 15 -11 36.5t-5.5 44.5t-1.5 46.5t1 43.5h-1q-19 -2 -42 -4t-46 0.5t-44.5 11t-37.5 27.5q-18 21 -18 50t11.5 60t32 60.5t45 51.5t49 33.5t44.5 6.5t32 -29.5t11 -74.5q0 -19 -0.5 -30.5t-1.5 -25t-2.5 -32.5t-3.5 -53q-2 -27 -3 -49t-0.5 -42.5t1.5 -41
t4 -44.5q6 15 14 42.5t17.5 61t20 71t23 72t27 63t30.5 45.5q3 4 10.5 9t15.5 7.5t16 1t12 -11.5q9 -34 12 -85.5t7.5 -108.5t15 -111t33.5 -92t62.5 -53t103.5 7q6 0 9.5 -3.5t4 -8t-2.5 -8.5t-9 -5q-69 -22 -113.5 -7t-70.5 53t-38.5 92t-18 112t-8 112.5t-9.5 92.5
q-19 -15 -34.5 -42.5t-28.5 -62t-24 -73t-22 -76t-22 -71t-24 -58.5q0 -9 -9 -14.5t-13 3.5zM41 209q15 -19 39 -25.5t47.5 -6.5t42.5 2.5t24 1.5q1 28 2.5 48.5t2.5 39t2.5 38.5t3.5 48q4 53 -11 69t-38.5 6t-50.5 -38t-46.5 -62t-26.5 -67.5t9 -53.5zM315 535
q-5 12 4 17.5t17 -5.5q7 -10 16.5 -32.5t17.5 -39.5q5 17 14 42t20 50q6 10 15 7.5t9 -13.5q-4 -10 -10 -28.5t-13.5 -37.5t-16 -34.5t-16.5 -18.5q-6 -1 -13 4q-6 9 -12.5 22t-12.5 26.5t-11 24.5t-8 16z" />
    <glyph glyph-name="ncaron" unicode="&#x148;" horiz-adv-x="340" 
d="M299 37q-33 -33 -57 -26q-14 3 -23 16.5t-15 33t-9.5 41t-7.5 40.5t-8 32.5t-11 16.5q-10 3 -20.5 -9t-21 -32t-20.5 -44t-17.5 -46t-12.5 -37t-6 -17q-4 -9 -13.5 -11t-14.5 9q-6 22 -10.5 53.5t-6.5 64.5t-2 63t2 51q4 16 14 12.5t12 -13.5q-3 -43 -2.5 -89t8.5 -91
q2 8 8 24t15 35.5t20 39.5t23.5 36t26 25t26.5 6q10 -2 17 -16t12.5 -34t9 -43t8 -42.5t10 -32.5t14.5 -14q8 -2 17 3.5t19 15.5q19 21 35 46t21 35q6 14 13 28.5t11 26.5q6 13 14.5 10t8.5 -16q-5 -20 -17.5 -46t-29.5 -53q-5 -8 -15.5 -23.5t-24.5 -28.5zM100 349
q-5 12 4 17.5t17 -5.5q7 -10 16.5 -32.5t17.5 -39.5q5 17 14 42t20 50q6 10 15 7.5t9 -13.5q-4 -10 -10 -28.5t-13.5 -37.5t-16 -34.5t-16.5 -18.5q-6 -1 -13 4q-6 9 -12.5 22t-12.5 26.5t-11 24.5t-8 16z" />
    <glyph glyph-name="napostrophe" unicode="&#x149;" horiz-adv-x="340" 
d="M299 37q-33 -33 -57 -26q-14 3 -23 16.5t-15 33t-9.5 41t-7.5 40.5t-8 32.5t-11 16.5q-10 3 -20.5 -9t-21 -32t-20.5 -44t-17.5 -46t-12.5 -37t-6 -17q-4 -9 -13.5 -11t-14.5 9q-6 22 -10.5 53.5t-6.5 64.5t-2 63t2 51q4 16 14 12.5t12 -13.5q-3 -43 -2.5 -89t8.5 -91
q2 8 8 24t15 35.5t20 39.5t23.5 36t26 25t26.5 6q10 -2 17 -16t12.5 -34t9 -43t8 -42.5t10 -32.5t14.5 -14q8 -2 17 3.5t19 15.5q19 21 35 46t21 35q6 14 13 28.5t11 26.5q6 13 14.5 10t8.5 -16q-5 -20 -17.5 -46t-29.5 -53q-5 -8 -15.5 -23.5t-24.5 -28.5zM-30 325
q1 7 6 11t11 5t11.5 -2t8.5 -10q4 -10 2.5 -22t-5.5 -24t-9.5 -22t-10.5 -17q-9 -5 -15 1.5t-1 14.5q8 10 13 23.5t5 24.5q-14 0 -16 16v1z" />
    <glyph glyph-name="Eng" unicode="&#x14a;" horiz-adv-x="498" 
d="M409 394q6 -11 12.5 -38.5t12 -66t10.5 -85t8 -95.5t4 -97t0 -89q9 2 20.5 3t23 0.5t20.5 -3.5t14 -9q4 -10 -3 -15.5t-16 2.5q-4 5 -21 4t-41 -6q-2 -32 -11.5 -65.5t-32.5 -59.5q-11 -11 -29.5 -16t-37 -4.5t-35.5 7.5t-25.5 19.5t-5.5 30.5t23 41q22 25 59.5 41.5
t72.5 24.5q2 35 1 81.5t-4 96t-8.5 99t-11 89t-11 66t-10.5 31.5q-19 -15 -35 -43.5t-29.5 -64.5t-25 -77t-22 -79.5l-19.5 -71.5t-18 -55q-5 -10 -15.5 -9.5t-12.5 6.5q-7 15 -11 36.5t-5.5 44.5t-1.5 46.5t1 43.5h-1q-19 -2 -42 -4t-46 0.5t-44.5 11t-37.5 27.5
q-18 21 -18 50t11.5 60t32 60.5t45 51.5t49 33.5t44.5 6.5t32 -29.5t11 -74.5q0 -19 -0.5 -30.5t-1.5 -25t-2.5 -32.5t-3.5 -53q-2 -27 -3 -49.5t-0.5 -43t1.5 -40.5t4 -44q7 15 15 42t17 61t20 71t23.5 71.5t26.5 63.5t30 46q3 4 10 9t15 7t15.5 0.5t13.5 -10.5zM41 209
q15 -19 39 -25.5t47.5 -6.5t42.5 2.5t24 1.5q1 28 2.5 48.5t2.5 39t2.5 38.5t3.5 48q4 53 -11 69t-38.5 6t-50.5 -38t-46.5 -62t-26.5 -67.5t9 -53.5zM352 -221q22 1 35.5 12t22 27t12.5 35t7 38q-28 -9 -55 -21t-47 -27q-16 -13 -22.5 -25t-3.5 -21.5t15.5 -14.5t35.5 -3z
" />
    <glyph glyph-name="eng" unicode="&#x14b;" horiz-adv-x="271" 
d="M199 -254q9 24 11 68t0 96q-30 -5 -57.5 -15t-47.5 -29q-17 -16 -10.5 -37.5t24.5 -40.5t41 -31.5t39 -10.5zM209 -66q-1 11 -2 24t-2.5 31.5t-4 45t-6.5 65.5q-4 32 -10 59.5t-16 31.5q-10 3 -20.5 -9t-21 -32t-20.5 -44t-17.5 -46t-12.5 -37t-6 -17q-4 -9 -13.5 -11
t-14.5 9q-6 22 -10.5 53.5t-6.5 64.5t-2 63t2 51q4 16 14 12.5t12 -13.5q-3 -43 -2.5 -89t8.5 -91q2 8 8 24t15 35.5t20 39.5t23.5 36t26 25t26.5 6q9 -2 16 -12.5t12 -25.5t8.5 -34t5.5 -38q6 -43 8.5 -85.5t5.5 -88.5q21 2 41 4.5t38 6.5q12 0 14 -9t-8 -15
q-20 -4 -40.5 -6t-43.5 -5q1 -14 1.5 -42t-1 -58t-6 -55t-14.5 -33q-11 -9 -28.5 -5.5t-37.5 15t-38 29.5t-28 38.5t-10.5 41.5t16.5 39q22 23 54.5 34.5t67.5 16.5z" />
    <glyph glyph-name="Omacron" unicode="&#x14c;" horiz-adv-x="455" 
d="M136 4q-34 6 -59.5 27t-42 51.5t-24 68.5t-5.5 77q2 45 19.5 94.5t52.5 83.5q29 30 66.5 40t76.5 4t75.5 -26t65 -49.5t45 -67.5t14.5 -79q-2 -20 -6.5 -40t-13.5 -41q6 4 12 6t13 6q6 3 10 1.5t5.5 -5t0.5 -8.5t-7 -8q-20 -13 -31.5 -16t-25.5 -8q-17 -25 -41 -48.5
t-54.5 -40t-67 -23.5t-78.5 1zM119 240q19 -26 47.5 -48.5t61.5 -38t68.5 -21.5t68.5 3q14 22 21.5 46t10.5 48q2 35 -12 67.5t-39 59t-57.5 45t-67 25t-67.5 -0.5t-59 -32q-10 -16 -12 -36.5t2 -41.5t13 -40.5t21 -34.5zM346 109q-39 -7 -87.5 6.5t-91.5 44t-74.5 75.5
t-35.5 100q-21 -38 -26.5 -87.5t5 -95.5t37 -80.5t69.5 -43.5q58 -12 112.5 11.5t91.5 69.5zM128 499q-11 2 -12 10.5t10 13.5q31 1 62 4t62 4q6 0 9.5 -3.5t4 -8t-2.5 -8t-9 -4.5q-31 -1 -61.5 -4t-62.5 -4z" />
    <glyph glyph-name="omacron" unicode="&#x14d;" horiz-adv-x="232" 
d="M71 256q11 0 13 -10q23 3 45 -11t34 -34q20 -35 20 -77q26 8 43.5 26t29.5 44q6 10 14.5 8t8.5 -14q-11 -31 -36.5 -56.5t-60.5 -33.5q-5 -25 -17.5 -45.5t-35.5 -29.5q-29 -12 -51 -2.5t-37 32t-21 52.5t-3 60t16.5 55t37.5 36zM121 46q15 6 23.5 18.5t12.5 29.5
q-20 0 -38.5 8t-33 22t-23.5 33t-10 42q-9 -24 -9 -55t8.5 -56t26 -39t43.5 -3zM139 188q-12 17 -25 24t-33 7q-7 -19 -2.5 -36.5t16.5 -31t29 -21.5t35 -9q-2 39 -20 67zM28 297q-11 2 -12 10.5t10 13.5q31 1 62 4t62 4q6 0 9.5 -3.5t4 -8t-2.5 -8t-9 -4.5q-31 -1 -61.5 -4
t-62.5 -4z" />
    <glyph glyph-name="Obreve" unicode="&#x14e;" horiz-adv-x="455" 
d="M136 4q-34 6 -59.5 27t-42 51.5t-24 68.5t-5.5 77q2 45 19.5 94.5t52.5 83.5q29 30 66.5 40t76.5 4t75.5 -26t65 -49.5t45 -67.5t14.5 -79q-2 -20 -6.5 -40t-13.5 -41q6 4 12 6t13 6q6 3 10 1.5t5.5 -5t0.5 -8.5t-7 -8q-20 -13 -31.5 -16t-25.5 -8q-17 -25 -41 -48.5
t-54.5 -40t-67 -23.5t-78.5 1zM119 240q19 -26 47.5 -48.5t61.5 -38t68.5 -21.5t68.5 3q14 22 21.5 46t10.5 48q2 35 -12 67.5t-39 59t-57.5 45t-67 25t-67.5 -0.5t-59 -32q-10 -16 -12 -36.5t2 -41.5t13 -40.5t21 -34.5zM346 109q-39 -7 -87.5 6.5t-91.5 44t-74.5 75.5
t-35.5 100q-21 -38 -26.5 -87.5t5 -95.5t37 -80.5t69.5 -43.5q58 -12 112.5 11.5t91.5 69.5zM131 552q2 11 12 11t12 -10q4 -26 13.5 -33.5t21 -2.5t21.5 18.5t15 29.5q7 10 15.5 8t8.5 -14q-8 -28 -25 -46.5t-36 -22.5t-35.5 10t-22.5 52z" />
    <glyph glyph-name="obreve" unicode="&#x14f;" horiz-adv-x="232" 
d="M71 256q11 0 13 -10q23 3 45 -11t34 -34q20 -35 20 -77q26 8 43.5 26t29.5 44q6 10 14.5 8t8.5 -14q-11 -31 -36.5 -56.5t-60.5 -33.5q-5 -25 -17.5 -45.5t-35.5 -29.5q-29 -12 -51 -2.5t-37 32t-21 52.5t-3 60t16.5 55t37.5 36zM121 46q15 6 23.5 18.5t12.5 29.5
q-20 0 -38.5 8t-33 22t-23.5 33t-10 42q-9 -24 -9 -55t8.5 -56t26 -39t43.5 -3zM139 188q-12 17 -25 24t-33 7q-7 -19 -2.5 -36.5t16.5 -31t29 -21.5t35 -9q-2 39 -20 67zM33 362q2 11 12 11t12 -10q4 -26 13.5 -33.5t21 -2.5t21.5 18.5t15 29.5q7 10 15.5 8t8.5 -14
q-8 -28 -25 -46.5t-36 -22.5t-35.5 10t-22.5 52z" />
    <glyph glyph-name="Ohungarumlaut" unicode="&#x150;" horiz-adv-x="455" 
d="M136 4q-34 6 -59.5 27t-42 51.5t-24 68.5t-5.5 77q2 45 19.5 94.5t52.5 83.5q29 30 66.5 40t76.5 4t75.5 -26t65 -49.5t45 -67.5t14.5 -79q-2 -20 -6.5 -40t-13.5 -41q6 4 12 6t13 6q6 3 10 1.5t5.5 -5t0.5 -8.5t-7 -8q-20 -13 -31.5 -16t-25.5 -8q-17 -25 -41 -48.5
t-54.5 -40t-67 -23.5t-78.5 1zM119 240q19 -26 47.5 -48.5t61.5 -38t68.5 -21.5t68.5 3q14 22 21.5 46t10.5 48q2 35 -12 67.5t-39 59t-57.5 45t-67 25t-67.5 -0.5t-59 -32q-10 -16 -12 -36.5t2 -41.5t13 -40.5t21 -34.5zM346 109q-39 -7 -87.5 6.5t-91.5 44t-74.5 75.5
t-35.5 100q-21 -38 -26.5 -87.5t5 -95.5t37 -80.5t69.5 -43.5q58 -12 112.5 11.5t91.5 69.5zM240 588q7 10 15.5 7.5t8.5 -13.5l-43 -92q-5 -11 -15.5 -9t-8.5 15zM188 594q7 10 16 7.5t9 -13.5l-44 -92q-5 -11 -15.5 -9t-8.5 15z" />
    <glyph glyph-name="ohungarumlaut" unicode="&#x151;" horiz-adv-x="232" 
d="M71 256q11 0 13 -10q23 3 45 -11t34 -34q20 -35 20 -77q26 8 43.5 26t29.5 44q6 10 14.5 8t8.5 -14q-11 -31 -36.5 -56.5t-60.5 -33.5q-5 -25 -17.5 -45.5t-35.5 -29.5q-29 -12 -51 -2.5t-37 32t-21 52.5t-3 60t16.5 55t37.5 36zM121 46q15 6 23.5 18.5t12.5 29.5
q-20 0 -38.5 8t-33 22t-23.5 33t-10 42q-9 -24 -9 -55t8.5 -56t26 -39t43.5 -3zM139 188q-12 17 -25 24t-33 7q-7 -19 -2.5 -36.5t16.5 -31t29 -21.5t35 -9q-2 39 -20 67zM136 392q7 10 15.5 7.5t8.5 -13.5l-43 -92q-5 -11 -15.5 -9t-8.5 15zM84 398q7 10 16 7.5t9 -13.5
l-44 -92q-5 -11 -15.5 -9t-8.5 15z" />
    <glyph glyph-name="OE" unicode="&#x152;" horiz-adv-x="699" 
d="M528 431q9 -8 6 -16.5t-14 -6.5q-21 6 -54 2t-63 -15.5t-51 -30t-19 -41.5q1 -15 19 -23t42 -11t47 -2.5t35 0.5q26 13 45 11t25 -9.5t-3 -16t-39 -8.5q-35 -8 -69.5 -19.5t-69.5 -34.5q-32 -20 -51 -43.5t-21.5 -46t12.5 -42t53 -31.5q32 32 71.5 56.5t74.5 36.5
q14 4 41 9t54.5 5t49.5 -8.5t25 -30.5q5 -26 -18 -49t-70 -37q-19 -6 -46.5 -11t-58 -7.5t-61 -1.5t-56.5 8q-29 -35 -38 -72t0 -84q0 -11 -9.5 -12.5t-15.5 7.5q-3 18 -5 37.5t1.5 40.5t13 44t28.5 47q-20 7 -33 18q-34 -24 -76.5 -36.5t-93.5 -2.5q-34 6 -59.5 27
t-42 51.5t-24 68.5t-5.5 77q2 45 19.5 94.5t52.5 83.5q28 28 62 38.5t70 7t71 -20t64 -41.5q19 15 44.5 25t51 15t49 5.5t39.5 -4.5zM395 263q-13 1 -27.5 4.5t-27 9.5t-21 15.5t-10.5 23.5q-4 32 18 57q-26 22 -56.5 36t-61.5 18t-60.5 -4t-53.5 -30q-10 -16 -12 -36.5
t2 -41.5t13 -40.5t21 -34.5q26 -34 66.5 -61.5t85.5 -40.5q11 32 44 62t81 53q0 7 -1 10zM57 335q-21 -38 -26.5 -87.5t5 -95.5t37 -80.5t69.5 -43.5q39 -8 76.5 0.5t70.5 28.5q-25 25 -23 57q-36 9 -72 29t-65.5 48.5t-49 65t-22.5 78.5zM511 116q-32 -11 -65.5 -32
t-61.5 -47q18 -5 45 -6.5t56.5 1t58.5 8.5t52.5 16t38 24t14.5 31q-5 11 -21 15.5t-36.5 4t-42.5 -4.5t-38 -10z" />
    <glyph glyph-name="oe" unicode="&#x153;" horiz-adv-x="340" 
d="M158 43q-11 -12 -29 -20q-29 -12 -51 -2.5t-37 32t-21 52.5t-3 60t16.5 55t37.5 36q11 0 13 -10q23 3 45 -11t34 -34l2 -3l-14 -35q-3 7 -5.5 13.5t-6.5 11.5q-12 17 -25 24t-33 7q-7 -18 -3.5 -34.5t14 -29.5t26.5 -21.5t33 -11.5l-4 -27q-36 5 -64.5 33t-30.5 71
q-9 -24 -9 -55t8.5 -56t26 -39t43.5 -3q17 7 26 24zM340 89q-11 -17 -27.5 -34t-37 -30.5t-43.5 -20t-47 -0.5q-17 4 -28 20.5t-16.5 40.5t-6 52t4.5 54q6 35 18.5 54.5t27 26t28 2t22 -18t9 -34.5t-10.5 -47q-11 -24 -30.5 -46.5t-37.5 -33.5q4 -17 11 -28.5t18 -15.5
q21 -7 43.5 2.5t42.5 27.5t35.5 39.5t24.5 39.5q7 14 13.5 28.5t10.5 26.5q7 13 15 10t8 -16q-5 -20 -17.5 -46t-29.5 -53zM211 164q10 22 7 41t-12 24.5t-21 -7.5t-19 -53q-3 -17 -4.5 -34t0.5 -34q12 10 26 26.5t23 36.5z" />
    <glyph glyph-name="Racute" unicode="&#x154;" horiz-adv-x="445" 
d="M154 141q0 -41 -1.5 -75t-5.5 -45q-2 -8 -10.5 -12.5t-15.5 3.5q-29 38 -54 84t-42 90q-32 81 -12 138.5t112 84.5v36q1 6 5 9t8.5 2.5t8 -4t3.5 -9.5v-28q32 6 65.5 7t63 -4t53 -16t35.5 -28q18 -26 8.5 -54.5t-34 -56t-58.5 -52t-67 -41.5q33 1 58.5 -5t46.5 -21
t39 -39.5t37 -59.5q23 -44 41.5 -67.5t41 -30t54.5 2.5t83 31q12 0 14.5 -9t-7.5 -15q-47 -19 -82 -29.5t-63.5 -4.5t-53 33t-51.5 83q-15 31 -34.5 55t-46 38t-60.5 17t-79 -8zM150 390q2 -56 4 -111.5t0 -110.5h2q12 3 33.5 13.5t45.5 26t48 34t41.5 38.5t25 40t-0.5 38
q-8 15 -32 23.5t-54.5 11.5t-61 1.5t-51.5 -4.5zM130 162q2 55 -0.5 111t-4.5 111q-44 -13 -65.5 -35t-27 -50.5t2 -61.5t22 -66.5t33 -65.5t35.5 -60l4 85h-13.5t-10.5 7q0 10 8 15.5t17 9.5zM234 583q3 6 8 7t9 -0.5t5.5 -5.5t-1.5 -10q-15 -29 -34 -52t-42 -46
q-9 -5 -15.5 1.5t-1.5 15.5q21 23 39 43.5t33 46.5z" />
    <glyph glyph-name="racute" unicode="&#x155;" horiz-adv-x="291" 
d="M47 268q17 -17 32.5 -23t29 -9.5t24 -10t18.5 -22.5q3 -6 3 -27.5t0.5 -47t3.5 -49.5t13 -37q4 -5 12 -6q15 -4 31.5 7.5t31.5 29.5t27 36.5t18 29.5q6 14 13 28.5t11 26.5q6 13 14.5 10t8.5 -16q-6 -20 -18 -46t-29 -53q-7 -10 -17 -22.5t-21.5 -24.5t-25 -21t-26.5 -13
q-23 -7 -43 6t-28 55q-5 32 -3.5 63.5t-1.5 50.5q-2 13 -7.5 19t-14 10t-18.5 6.5t-21 7.5q-13 -39 -27 -59t-19 -27q-11 -8 -12 -2t2 16q20 43 22.5 65.5t2.5 32.5q-4 8 0 13.5t14 2.5zM133 411q3 6 8 7t9 -0.5t5.5 -5.5t-1.5 -10q-15 -29 -34 -52t-42 -46q-9 -5 -15.5 1.5
t-1.5 15.5q21 23 39 43.5t33 46.5z" />
    <glyph glyph-name="Rcommaaccent" unicode="&#x156;" horiz-adv-x="445" 
d="M154 141q0 -41 -1.5 -75t-5.5 -45q-2 -8 -10.5 -12.5t-15.5 3.5q-29 38 -54 84t-42 90q-32 81 -12 138.5t112 84.5v36q1 6 5 9t8.5 2.5t8 -4t3.5 -9.5v-28q32 6 65.5 7t63 -4t53 -16t35.5 -28q18 -26 8.5 -54.5t-34 -56t-58.5 -52t-67 -41.5q33 1 58.5 -5t46.5 -21
t39 -39.5t37 -59.5q23 -44 41.5 -67.5t41 -30t54.5 2.5t83 31q12 0 14.5 -9t-7.5 -15q-47 -19 -82 -29.5t-63.5 -4.5t-53 33t-51.5 83q-15 31 -34.5 55t-46 38t-60.5 17t-79 -8zM150 390q2 -56 4 -111.5t0 -110.5h2q12 3 33.5 13.5t45.5 26t48 34t41.5 38.5t25 40t-0.5 38
q-8 15 -32 23.5t-54.5 11.5t-61 1.5t-51.5 -4.5zM130 162q2 55 -0.5 111t-4.5 111q-44 -13 -65.5 -35t-27 -50.5t2 -61.5t22 -66.5t33 -65.5t35.5 -60l4 85h-13.5t-10.5 7q0 10 8 15.5t17 9.5zM233 -40q1 7 6 11t11 5t11.5 -2t8.5 -10q4 -10 2.5 -22t-5.5 -24t-9.5 -22
t-10.5 -17q-9 -5 -15 1.5t-1 14.5q8 10 13 23.5t5 24.5q-14 0 -16 16v1z" />
    <glyph glyph-name="rcommaaccent" unicode="&#x157;" horiz-adv-x="291" 
d="M47 268q17 -17 32.5 -23t29 -9.5t24 -10t18.5 -22.5q3 -6 3 -27.5t0.5 -47t3.5 -49.5t13 -37q4 -5 12 -6q15 -4 31.5 7.5t31.5 29.5t27 36.5t18 29.5q6 14 13 28.5t11 26.5q6 13 14.5 10t8.5 -16q-6 -20 -18 -46t-29 -53q-7 -10 -17 -22.5t-21.5 -24.5t-25 -21t-26.5 -13
q-23 -7 -43 6t-28 55q-5 32 -3.5 63.5t-1.5 50.5q-2 13 -7.5 19t-14 10t-18.5 6.5t-21 7.5q-13 -39 -27 -59t-19 -27q-11 -8 -12 -2t2 16q20 43 22.5 65.5t2.5 32.5q-4 8 0 13.5t14 2.5zM48 14q1 7 6 11t11 5t11.5 -2t8.5 -10q4 -10 2.5 -22t-5.5 -24t-9.5 -22t-10.5 -17
q-9 -5 -15 1.5t-1 14.5q8 10 13 23.5t5 24.5q-14 0 -16 16v1z" />
    <glyph glyph-name="Rcaron" unicode="&#x158;" horiz-adv-x="445" 
d="M154 141q0 -41 -1.5 -75t-5.5 -45q-2 -8 -10.5 -12.5t-15.5 3.5q-29 38 -54 84t-42 90q-32 81 -12 138.5t112 84.5v36q1 6 5 9t8.5 2.5t8 -4t3.5 -9.5v-28q32 6 65.5 7t63 -4t53 -16t35.5 -28q18 -26 8.5 -54.5t-34 -56t-58.5 -52t-67 -41.5q33 1 58.5 -5t46.5 -21
t39 -39.5t37 -59.5q23 -44 41.5 -67.5t41 -30t54.5 2.5t83 31q12 0 14.5 -9t-7.5 -15q-47 -19 -82 -29.5t-63.5 -4.5t-53 33t-51.5 83q-15 31 -34.5 55t-46 38t-60.5 17t-79 -8zM150 390q2 -56 4 -111.5t0 -110.5h2q12 3 33.5 13.5t45.5 26t48 34t41.5 38.5t25 40t-0.5 38
q-8 15 -32 23.5t-54.5 11.5t-61 1.5t-51.5 -4.5zM130 162q2 55 -0.5 111t-4.5 111q-44 -13 -65.5 -35t-27 -50.5t2 -61.5t22 -66.5t33 -65.5t35.5 -60l4 85h-13.5t-10.5 7q0 10 8 15.5t17 9.5zM158 554q-5 12 4 17.5t17 -5.5q7 -10 16.5 -32.5t17.5 -39.5q5 17 14 42t20 50
q6 10 15 7.5t9 -13.5q-4 -10 -10 -28.5t-13.5 -37.5t-16 -34.5t-16.5 -18.5q-6 -1 -13 4q-6 9 -12.5 22t-12.5 26.5t-11 24.5t-8 16z" />
    <glyph glyph-name="rcaron" unicode="&#x159;" horiz-adv-x="291" 
d="M47 268q17 -17 32.5 -23t29 -9.5t24 -10t18.5 -22.5q3 -6 3 -27.5t0.5 -47t3.5 -49.5t13 -37q4 -5 12 -6q15 -4 31.5 7.5t31.5 29.5t27 36.5t18 29.5q6 14 13 28.5t11 26.5q6 13 14.5 10t8.5 -16q-6 -20 -18 -46t-29 -53q-7 -10 -17 -22.5t-21.5 -24.5t-25 -21t-26.5 -13
q-23 -7 -43 6t-28 55q-5 32 -3.5 63.5t-1.5 50.5q-2 13 -7.5 19t-14 10t-18.5 6.5t-21 7.5q-13 -39 -27 -59t-19 -27q-11 -8 -12 -2t2 16q20 43 22.5 65.5t2.5 32.5q-4 8 0 13.5t14 2.5zM44 382q-5 12 4 17.5t17 -5.5q7 -10 16.5 -32.5t17.5 -39.5q5 17 14 42t20 50
q6 10 15 7.5t9 -13.5q-4 -10 -10 -28.5t-13.5 -37.5t-16 -34.5t-16.5 -18.5q-6 -1 -13 4q-6 9 -12.5 22t-12.5 26.5t-11 24.5t-8 16z" />
    <glyph glyph-name="Sacute" unicode="&#x15a;" horiz-adv-x="426" 
d="M285 431q2 -6 0.5 -10.5t-5.5 -7t-8.5 -2t-8.5 5.5q-8 11 -22.5 14.5t-31 0.5t-32 -11.5t-23 -22.5t-5.5 -31.5t21 -38.5q19 -22 47.5 -43t56 -39.5t50 -32.5t29.5 -21q7 1 16 2t17 3q13 2 15.5 -8t-10.5 -15q-4 -2 -10 -2.5t-8 -0.5q18 -24 23 -50.5t-10 -57.5
q-15 -30 -56 -46t-92 -19.5t-103 4.5t-87 26q-17 9 -29 22t-15 27.5t6.5 29.5t35.5 27q31 15 65 23.5t69 13.5t70.5 8t69.5 8q-10 7 -30.5 19.5t-45 28.5t-49.5 35t-44 40q-23 25 -26.5 49.5t6 44.5t29 34t42 19t45 -0.5t38.5 -25.5zM364 72q8 14 8.5 27t-3 25t-11 22
t-15.5 19q-33 -5 -70.5 -8t-74 -7.5t-71.5 -12t-63 -20.5q-35 -17 -32.5 -35t37.5 -35q31 -15 75.5 -21.5t89 -3.5t80.5 15t50 35zM237 596q3 6 8 7t9 -0.5t5.5 -5.5t-1.5 -10q-15 -29 -34 -52t-42 -46q-9 -5 -15.5 1.5t-1.5 15.5q21 23 39 43.5t33 46.5z" />
    <glyph glyph-name="sacute" unicode="&#x15b;" horiz-adv-x="242" 
d="M234 122q-6 -4 -9 -5q-3 -3 -7 -4q0 -1 -2 -1l-5 -3q-14 -8 -30 -15.5t-29 -12.5q12 -14 17.5 -26.5t2.5 -24.5q-3 -14 -19 -20.5t-36.5 -7t-41.5 4.5t-34.5 13t-15.5 18t16 21q10 7 28.5 14.5t39.5 16.5q-19 17 -39.5 34.5t-34.5 37.5q-16 21 -16.5 40t10 32t30 19.5
t45.5 3.5q13 -4 10.5 -15t-15.5 -9q-35 5 -48.5 -13t11.5 -49q14 -17 32.5 -34.5t38.5 -35.5q25 11 49.5 22t45.5 25q12 9 22 20.5t17 25.5q6 10 14 8t8 -14q-6 -18 -21 -35t-34 -31zM146 34q5 7 -3 17.5t-15 18.5q-56 -18 -73 -28q2 -5 14.5 -9t27.5 -6t29 -1t19 8h1z
M91 399q3 6 8 7t9 -0.5t5.5 -5.5t-1.5 -10q-15 -29 -34 -52t-42 -46q-9 -5 -15.5 1.5t-1.5 15.5q21 23 39 43.5t33 46.5z" />
    <glyph glyph-name="Scircumflex" unicode="&#x15c;" horiz-adv-x="426" 
d="M285 431q2 -6 0.5 -10.5t-5.5 -7t-8.5 -2t-8.5 5.5q-8 11 -22.5 14.5t-31 0.5t-32 -11.5t-23 -22.5t-5.5 -31.5t21 -38.5q19 -22 47.5 -43t56 -39.5t50 -32.5t29.5 -21q7 1 16 2t17 3q13 2 15.5 -8t-10.5 -15q-4 -2 -10 -2.5t-8 -0.5q18 -24 23 -50.5t-10 -57.5
q-15 -30 -56 -46t-92 -19.5t-103 4.5t-87 26q-17 9 -29 22t-15 27.5t6.5 29.5t35.5 27q31 15 65 23.5t69 13.5t70.5 8t69.5 8q-10 7 -30.5 19.5t-45 28.5t-49.5 35t-44 40q-23 25 -26.5 49.5t6 44.5t29 34t42 19t45 -0.5t38.5 -25.5zM364 72q8 14 8.5 27t-3 25t-11 22
t-15.5 19q-33 -5 -70.5 -8t-74 -7.5t-71.5 -12t-63 -20.5q-35 -17 -32.5 -35t37.5 -35q31 -15 75.5 -21.5t89 -3.5t80.5 15t50 35zM183 492q-3 -4 -8 -5t-9 0.5t-6 5t0 8.5q5 10 11 25t12 29.5t12 25t12 12.5q5 1 9 1t9 -5q8 -8 16 -21.5t14.5 -26.5t11 -23t5.5 -13
q4 -12 -4.5 -15.5t-13.5 3.5q-8 12 -17.5 32t-21.5 40q-8 -14 -14.5 -32.5t-17.5 -40.5z" />
    <glyph glyph-name="scircumflex" unicode="&#x15d;" horiz-adv-x="242" 
d="M234 122q-6 -4 -9 -5q-3 -3 -7 -4q0 -1 -2 -1l-5 -3q-14 -8 -30 -15.5t-29 -12.5q12 -14 17.5 -26.5t2.5 -24.5q-3 -14 -19 -20.5t-36.5 -7t-41.5 4.5t-34.5 13t-15.5 18t16 21q10 7 28.5 14.5t39.5 16.5q-19 17 -39.5 34.5t-34.5 37.5q-16 21 -16.5 40t10 32t30 19.5
t45.5 3.5q13 -4 10.5 -15t-15.5 -9q-35 5 -48.5 -13t11.5 -49q14 -17 32.5 -34.5t38.5 -35.5q25 11 49.5 22t45.5 25q12 9 22 20.5t17 25.5q6 10 14 8t8 -14q-6 -18 -21 -35t-34 -31zM146 34q5 7 -3 17.5t-15 18.5q-56 -18 -73 -28q2 -5 14.5 -9t27.5 -6t29 -1t19 8h1z
M38 297q-3 -4 -8 -5t-9 0.5t-6 5t0 8.5q5 10 11 25t12 29.5t12 25t12 12.5q5 1 9 1t9 -5q8 -8 16 -21.5t14.5 -26.5t11 -23t5.5 -13q4 -12 -4.5 -15.5t-13.5 3.5q-8 12 -17.5 32t-21.5 40q-8 -14 -14.5 -32.5t-17.5 -40.5z" />
    <glyph glyph-name="Scedilla" unicode="&#x15e;" horiz-adv-x="426" 
d="M221 12q-4 -13 -6.5 -27t2.5 -19q6 -6 15.5 -8t19.5 -2.5t20 -3t17 -9.5q12 -11 6 -22.5t-19.5 -21t-29.5 -16t-24 -7.5q-13 -2 -15 8.5t9 15.5q12 2 29 9t24 17q-9 8 -22 9t-25 3q-14 3 -20.5 10.5t-9 17t-1 21.5t3.5 24zM285 431q2 -6 0.5 -10.5t-5.5 -7t-8.5 -2
t-8.5 5.5q-8 11 -22.5 14.5t-31 0.5t-32 -11.5t-23 -22.5t-5.5 -31.5t21 -38.5q19 -22 47.5 -43t56 -39.5t50 -32.5t29.5 -21q7 1 16 2t17 3q13 2 15.5 -8t-10.5 -15q-4 -2 -10 -2.5t-8 -0.5q18 -24 23 -50.5t-10 -57.5q-15 -30 -56 -46t-92 -19.5t-103 4.5t-87 26
q-17 9 -29 22t-15 27.5t6.5 29.5t35.5 27q31 15 65 23.5t69 13.5t70.5 8t69.5 8q-10 7 -30.5 19.5t-45 28.5t-49.5 35t-44 40q-23 25 -26.5 49.5t6 44.5t29 34t42 19t45 -0.5t38.5 -25.5zM364 72q8 14 8.5 27t-3 25t-11 22t-15.5 19q-33 -5 -70.5 -8t-74 -7.5t-71.5 -12
t-63 -20.5q-35 -17 -32.5 -35t37.5 -35q31 -15 75.5 -21.5t89 -3.5t80.5 15t50 35z" />
    <glyph glyph-name="scedilla" unicode="&#x15f;" horiz-adv-x="242" 
d="M112 14q-4 -12 -6 -26t3 -19q6 -6 15.5 -8t19.5 -3t20 -3t17 -9q11 -11 5 -22.5t-19.5 -21t-29.5 -16.5t-24 -8q-13 -2 -15 8.5t9 15.5q12 2 29.5 9.5t23.5 17.5q-9 7 -22 8t-25 4q-14 3 -20.5 10.5t-8.5 18.5t-0.5 23t4.5 24zM234 122q-6 -4 -9 -5q-3 -3 -7 -4
q0 -1 -2 -1l-5 -3q-14 -8 -30 -15.5t-29 -12.5q12 -14 17.5 -26.5t2.5 -24.5q-3 -14 -19 -20.5t-36.5 -7t-41.5 4.5t-34.5 13t-15.5 18t16 21q10 7 28.5 14.5t39.5 16.5q-19 17 -39.5 34.5t-34.5 37.5q-16 21 -16.5 40t10 32t30 19.5t45.5 3.5q13 -4 10.5 -15t-15.5 -9
q-35 5 -48.5 -13t11.5 -49q14 -17 32.5 -34.5t38.5 -35.5q25 11 49.5 22t45.5 25q12 9 22 20.5t17 25.5q6 10 14 8t8 -14q-6 -18 -21 -35t-34 -31zM146 34q5 7 -3 17.5t-15 18.5q-56 -18 -73 -28q2 -5 14.5 -9t27.5 -6t29 -1t19 8h1z" />
    <glyph glyph-name="Scaron" unicode="&#x160;" horiz-adv-x="426" 
d="M285 431q2 -6 0.5 -10.5t-5.5 -7t-8.5 -2t-8.5 5.5q-8 11 -22.5 14.5t-31 0.5t-32 -11.5t-23 -22.5t-5.5 -31.5t21 -38.5q19 -22 47.5 -43t56 -39.5t50 -32.5t29.5 -21q7 1 16 2t17 3q13 2 15.5 -8t-10.5 -15q-4 -2 -10 -2.5t-8 -0.5q18 -24 23 -50.5t-10 -57.5
q-15 -30 -56 -46t-92 -19.5t-103 4.5t-87 26q-17 9 -29 22t-15 27.5t6.5 29.5t35.5 27q31 15 65 23.5t69 13.5t70.5 8t69.5 8q-10 7 -30.5 19.5t-45 28.5t-49.5 35t-44 40q-23 25 -26.5 49.5t6 44.5t29 34t42 19t45 -0.5t38.5 -25.5zM364 72q8 14 8.5 27t-3 25t-11 22
t-15.5 19q-33 -5 -70.5 -8t-74 -7.5t-71.5 -12t-63 -20.5q-35 -17 -32.5 -35t37.5 -35q31 -15 75.5 -21.5t89 -3.5t80.5 15t50 35zM156 579q-5 12 4 17.5t17 -5.5q7 -10 16.5 -32.5t17.5 -39.5q5 17 14 42t20 50q6 10 15 7.5t9 -13.5q-4 -10 -10 -28.5t-13.5 -37.5
t-16 -34.5t-16.5 -18.5q-6 -1 -13 4q-6 9 -12.5 22t-12.5 26.5t-11 24.5t-8 16z" />
    <glyph glyph-name="scaron" unicode="&#x161;" horiz-adv-x="242" 
d="M234 122q-6 -4 -9 -5q-3 -3 -7 -4q0 -1 -2 -1l-5 -3q-14 -8 -30 -15.5t-29 -12.5q12 -14 17.5 -26.5t2.5 -24.5q-3 -14 -19 -20.5t-36.5 -7t-41.5 4.5t-34.5 13t-15.5 18t16 21q10 7 28.5 14.5t39.5 16.5q-19 17 -39.5 34.5t-34.5 37.5q-16 21 -16.5 40t10 32t30 19.5
t45.5 3.5q13 -4 10.5 -15t-15.5 -9q-35 5 -48.5 -13t11.5 -49q14 -17 32.5 -34.5t38.5 -35.5q25 11 49.5 22t45.5 25q12 9 22 20.5t17 25.5q6 10 14 8t8 -14q-6 -18 -21 -35t-34 -31zM146 34q5 7 -3 17.5t-15 18.5q-56 -18 -73 -28q2 -5 14.5 -9t27.5 -6t29 -1t19 8h1z
M32 382q-5 12 4 17.5t17 -5.5q7 -10 16.5 -32.5t17.5 -39.5q5 17 14 42t20 50q6 10 15 7.5t9 -13.5q-4 -10 -10 -28.5t-13.5 -37.5t-16 -34.5t-16.5 -18.5q-6 -1 -13 4q-6 9 -12.5 22t-12.5 26.5t-11 24.5t-8 16z" />
    <glyph glyph-name="Tcommaaccent" unicode="&#x162;" horiz-adv-x="468" 
d="M444 417q11 0 13.5 -8.5t-6.5 -15.5q-39 -10 -75 -7.5t-71 10.5q-9 -38 -6 -76.5t9 -77t9 -75.5t-6 -73q-10 -35 -31 -56t-48.5 -29t-58.5 -5t-61 16t-55.5 34t-42.5 49q-5 11 3.5 16.5t17.5 -4.5q19 -35 57 -58.5t77.5 -28.5t72.5 11.5t44 61.5q9 34 6.5 69.5t-8 71
t-10 71t-0.5 69.5q-24 -10 -53.5 -23t-59 -24t-56.5 -16t-46 2q-32 11 -37 30.5t6.5 39t33 35t44.5 18.5q43 7 85 -0.5t84 -17.5t84 -15t85 6zM136 425q-15 -1 -34.5 -8t-34 -17.5t-21 -22.5t4.5 -24q7 -8 19.5 -10.5t26.5 -1t28.5 5.5t26.5 9q30 11 59.5 24.5t52.5 23.5
q-13 3 -29 7t-33.5 7.5t-34 5.5t-31.5 1zM191 -45q1 7 6 11t11 5t11.5 -2t8.5 -10q4 -10 2.5 -22t-5.5 -24t-9.5 -22t-10.5 -17q-9 -5 -15 1.5t-1 14.5q8 10 13 23.5t5 24.5q-14 0 -16 16v1z" />
    <glyph glyph-name="tcommaaccent" unicode="&#x163;" horiz-adv-x="172" 
d="M-25 301q-13 -2 -15 8.5t9 16.5l51 9q2 26 3.5 52t5.5 51q1 6 4.5 9t8 2.5t8 -4.5t3.5 -10q-1 -17 -2 -41.5t-1 -53.5q35 6 69.5 10.5t69.5 6.5q6 0 10 -3.5t4.5 -8t-2.5 -8t-9 -4.5q-53 -4 -83.5 -7.5t-58.5 -8.5q0 -45 1 -93.5t4.5 -90t10 -70t17.5 -33.5q6 1 18 13
t25.5 28t26 34.5t19.5 33.5q7 14 14 28.5t11 26.5q6 13 14 10t8 -16q-5 -20 -17.5 -46t-29.5 -53q-5 -8 -16.5 -23.5t-25.5 -30t-28.5 -24t-26.5 -6.5q-13 2 -21 20.5t-15 52.5q-11 47 -16 107.5t-3 125.5zM74 -38q1 7 6 11t11 5t11.5 -2t8.5 -10q4 -10 2.5 -22t-5.5 -24
t-9.5 -22t-10.5 -17q-9 -5 -15 1.5t-1 14.5q8 10 13 23.5t5 24.5q-14 0 -16 16v1z" />
    <glyph glyph-name="Tcaron" unicode="&#x164;" horiz-adv-x="468" 
d="M444 417q11 0 13.5 -8.5t-6.5 -15.5q-39 -10 -75 -7.5t-71 10.5q-9 -38 -6 -76.5t9 -77t9 -75.5t-6 -73q-10 -35 -31 -56t-48.5 -29t-58.5 -5t-61 16t-55.5 34t-42.5 49q-5 11 3.5 16.5t17.5 -4.5q19 -35 57 -58.5t77.5 -28.5t72.5 11.5t44 61.5q9 34 6.5 69.5t-8 71
t-10 71t-0.5 69.5q-24 -10 -53.5 -23t-59 -24t-56.5 -16t-46 2q-32 11 -37 30.5t6.5 39t33 35t44.5 18.5q43 7 85 -0.5t84 -17.5t84 -15t85 6zM136 425q-15 -1 -34.5 -8t-34 -17.5t-21 -22.5t4.5 -24q7 -8 19.5 -10.5t26.5 -1t28.5 5.5t26.5 9q30 11 59.5 24.5t52.5 23.5
q-13 3 -29 7t-33.5 7.5t-34 5.5t-31.5 1zM240 546q-5 12 4 17.5t17 -5.5q7 -10 16.5 -32.5t17.5 -39.5q5 17 14 42t20 50q6 10 15 7.5t9 -13.5q-4 -10 -10 -28.5t-13.5 -37.5t-16 -34.5t-16.5 -18.5q-6 -1 -13 4q-6 9 -12.5 22t-12.5 26.5t-11 24.5t-8 16z" />
    <glyph glyph-name="tcaron" unicode="&#x165;" horiz-adv-x="244" 
d="M-25 301q-13 -2 -15 8.5t9 16.5l51 9q2 26 3.5 52t5.5 51q1 6 4.5 9t8 2.5t8 -4.5t3.5 -10q-1 -17 -2 -41.5t-1 -53.5q35 6 69.5 10.5t69.5 6.5q6 0 10 -3.5t4.5 -8t-2.5 -8t-9 -4.5q-53 -4 -83.5 -7.5t-58.5 -8.5q0 -45 1 -93.5t4.5 -90t10 -70t17.5 -33.5q6 1 18 13
t25.5 28t26 34.5t19.5 33.5q7 14 14 28.5t11 26.5q6 13 14 10t8 -16q-5 -20 -17.5 -46t-29.5 -53q-5 -8 -16.5 -23.5t-25.5 -30t-28.5 -24t-26.5 -6.5q-13 2 -21 20.5t-15 52.5q-11 47 -16 107.5t-3 125.5zM112 490q-1 11 7 14t16 -6q15 -23 12 -54t-27 -59q-9 -6 -15.5 1
t-1.5 16q19 23 19.5 42.5t-10.5 45.5z" />
    <glyph glyph-name="Tbar" unicode="&#x166;" horiz-adv-x="468" 
d="M195 294q-6 1 -9 4.5t-3 8t3.5 8t9.5 3.5q48 0 90.5 0.5t90.5 0.5q6 0 9.5 -3.5t4 -8t-2.5 -8t-9 -4.5q-49 0 -91.5 -0.5t-92.5 -0.5zM444 417q11 0 13.5 -8.5t-6.5 -15.5q-39 -10 -75 -7.5t-71 10.5q-9 -38 -6 -76.5t9 -77t9 -75.5t-6 -73q-10 -35 -31 -56t-48.5 -29
t-58.5 -5t-61 16t-55.5 34t-42.5 49q-5 11 3.5 16.5t17.5 -4.5q19 -35 57 -58.5t77.5 -28.5t72.5 11.5t44 61.5q9 34 6.5 69.5t-8 71t-10 71t-0.5 69.5q-24 -10 -53.5 -23t-59 -24t-56.5 -16t-46 2q-32 11 -37 30.5t6.5 39t33 35t44.5 18.5q43 7 85 -0.5t84 -17.5t84 -15
t85 6zM136 425q-15 -1 -34.5 -8t-34 -17.5t-21 -22.5t4.5 -24q7 -8 19.5 -10.5t26.5 -1t28.5 5.5t26.5 9q30 11 59.5 24.5t52.5 23.5q-13 3 -29 7t-33.5 7.5t-34 5.5t-31.5 1z" />
    <glyph glyph-name="tbar" unicode="&#x167;" horiz-adv-x="172" 
d="M-4 254q-13 -2 -15 8.5t8 16.5l31 6v26l-45 -10q-13 -2 -15 8.5t9 16.5l51 9q2 26 3.5 52t5.5 51q1 6 4.5 9t8 2.5t8 -4.5t3.5 -10q-1 -17 -2 -41.5t-1 -53.5q35 6 69.5 10.5t69.5 6.5q6 0 10 -3.5t4.5 -8t-2.5 -8t-9 -4.5q-53 -4 -83.5 -7.5t-58.5 -8.5v-26q29 5 57 8.5
t67 8.5q6 0 9.5 -3t4 -7.5t-2.5 -9t-9 -5.5q-17 -2 -31.5 -3.5t-29.5 -3.5t-30.5 -4t-34.5 -6q0 -41 2 -81t5.5 -73t10 -55.5t15.5 -26.5q6 1 18 13t25.5 28t26 34.5t19.5 33.5q7 14 14 28.5t11 26.5q6 13 14 10t8 -16q-5 -20 -17.5 -46t-29.5 -53q-5 -8 -16.5 -23.5
t-25.5 -30t-28.5 -24t-26.5 -6.5q-13 2 -21 20.5t-15 52.5q-8 38 -13 84.5t-6 97.5z" />
    <glyph glyph-name="Utilde" unicode="&#x168;" horiz-adv-x="420" 
d="M28 414q-5 -11 -15.5 -9t-8.5 15q3 11 11 16t18 5t20.5 -4.5t17.5 -13.5q11 -14 15.5 -38.5t5 -56t-1 -66.5t-2.5 -68t0 -62.5t7 -49.5q7 -24 22.5 -33t34.5 -7.5t40 10.5t41 22.5t36.5 28t25.5 26.5q-6 48 -11 94t-7 94q0 17 -1 38t-0.5 41.5t3.5 38t9 28.5q7 10 17 6
q18 -8 32 -27t23 -42.5t13 -48.5t3 -43q-1 -51 -12 -95t-43 -89q5 -33 8.5 -55t6.5 -38.5t6 -30t8 -28.5q2 -6 -0.5 -10t-6.5 -5.5t-8.5 0t-7.5 7.5q-10 35 -15.5 65t-12.5 69q-15 -18 -34 -32.5t-39.5 -25.5t-41 -17t-38.5 -6q-43 0 -61.5 29t-22.5 72.5t0 95t5.5 96
t-5.5 75t-33 32.5q0 -1 -0.5 -1.5t-0.5 -1.5zM306 441q-6 -23 -7.5 -55t0.5 -70q2 -36 7 -76l10 -80q19 35 28.5 75t7.5 77q0 12 -3 30.5t-9 37t-14.5 35.5t-19.5 26zM133 493q-5 -11 -15.5 -9t-8.5 15q3 11 11 22t17 17q14 10 23 7t15 -11.5t10.5 -18.5t9 -14t10 1t13.5 27
q6 10 15 7.5t9 -13.5q-20 -53 -42.5 -49.5t-44.5 47.5q-8 -3 -14 -11.5t-8 -16.5z" />
    <glyph glyph-name="utilde" unicode="&#x169;" 
d="M288 89q-7 -12 -20 -30.5t-29 -33t-34 -19t-36 12.5q-11 11 -18 26t-12 35l-12 -34q-2 -5 -5 -11.5t-7.5 -13t-10 -11.5t-11.5 -6q-16 -2 -27 8t-18.5 28t-12 40.5t-7 44.5t-3.5 41t-1 29q2 12 12 12t12 -10q0 -15 2 -39.5t5.5 -50t10 -48t17.5 -32.5q15 7 24.5 34.5
t15 59.5t8 62t4.5 43q0 1 0.5 1.5t0.5 1.5q1 6 5 8t8 1.5t7.5 -4.5t3.5 -10q0 -1 -0.5 -3t-0.5 -7.5t-0.5 -17t-1.5 -30.5q-1 -32 1.5 -63.5t16.5 -54.5q9 -15 20 -16t22.5 6.5t23 22t21 29.5t16.5 28.5t10 20.5q7 14 14 28.5t10 26.5q7 13 15 10t8 -16q-5 -20 -17.5 -46
t-29.5 -53zM51 285q-5 -11 -15.5 -9t-8.5 15q3 11 11 22t17 17q14 10 23 7t15 -11.5t10.5 -18.5t9 -14t10 1t13.5 27q6 10 15 7.5t9 -13.5q-20 -53 -42.5 -49.5t-44.5 47.5q-8 -3 -14 -11.5t-8 -16.5z" />
    <glyph glyph-name="Umacron" unicode="&#x16a;" horiz-adv-x="420" 
d="M28 414q-5 -11 -15.5 -9t-8.5 15q3 11 11 16t18 5t20.5 -4.5t17.5 -13.5q11 -14 15.5 -38.5t5 -56t-1 -66.5t-2.5 -68t0 -62.5t7 -49.5q7 -24 22.5 -33t34.5 -7.5t40 10.5t41 22.5t36.5 28t25.5 26.5q-6 48 -11 94t-7 94q0 17 -1 38t-0.5 41.5t3.5 38t9 28.5q7 10 17 6
q18 -8 32 -27t23 -42.5t13 -48.5t3 -43q-1 -51 -12 -95t-43 -89q5 -33 8.5 -55t6.5 -38.5t6 -30t8 -28.5q2 -6 -0.5 -10t-6.5 -5.5t-8.5 0t-7.5 7.5q-10 35 -15.5 65t-12.5 69q-15 -18 -34 -32.5t-39.5 -25.5t-41 -17t-38.5 -6q-43 0 -61.5 29t-22.5 72.5t0 95t5.5 96
t-5.5 75t-33 32.5q0 -1 -0.5 -1.5t-0.5 -1.5zM306 441q-6 -23 -7.5 -55t0.5 -70q2 -36 7 -76l10 -80q19 35 28.5 75t7.5 77q0 12 -3 30.5t-9 37t-14.5 35.5t-19.5 26zM111 511q-11 2 -12 10.5t10 13.5q31 1 62 4t62 4q6 0 9.5 -3.5t4 -8t-2.5 -8t-9 -4.5q-31 -1 -61.5 -4
t-62.5 -4z" />
    <glyph glyph-name="umacron" unicode="&#x16b;" 
d="M288 89q-7 -12 -20 -30.5t-29 -33t-34 -19t-36 12.5q-11 11 -18 26t-12 35l-12 -34q-2 -5 -5 -11.5t-7.5 -13t-10 -11.5t-11.5 -6q-16 -2 -27 8t-18.5 28t-12 40.5t-7 44.5t-3.5 41t-1 29q2 12 12 12t12 -10q0 -15 2 -39.5t5.5 -50t10 -48t17.5 -32.5q15 7 24.5 34.5
t15 59.5t8 62t4.5 43q0 1 0.5 1.5t0.5 1.5q1 6 5 8t8 1.5t7.5 -4.5t3.5 -10q0 -1 -0.5 -3t-0.5 -7.5t-0.5 -17t-1.5 -30.5q-1 -32 1.5 -63.5t16.5 -54.5q9 -15 20 -16t22.5 6.5t23 22t21 29.5t16.5 28.5t10 20.5q7 14 14 28.5t10 26.5q7 13 15 10t8 -16q-5 -20 -17.5 -46
t-29.5 -53zM34 272q-11 2 -12 10.5t10 13.5q31 1 62 4t62 4q6 0 9.5 -3.5t4 -8t-2.5 -8t-9 -4.5q-31 -1 -61.5 -4t-62.5 -4z" />
    <glyph glyph-name="Ubreve" unicode="&#x16c;" horiz-adv-x="420" 
d="M28 414q-5 -11 -15.5 -9t-8.5 15q3 11 11 16t18 5t20.5 -4.5t17.5 -13.5q11 -14 15.5 -38.5t5 -56t-1 -66.5t-2.5 -68t0 -62.5t7 -49.5q7 -24 22.5 -33t34.5 -7.5t40 10.5t41 22.5t36.5 28t25.5 26.5q-6 48 -11 94t-7 94q0 17 -1 38t-0.5 41.5t3.5 38t9 28.5q7 10 17 6
q18 -8 32 -27t23 -42.5t13 -48.5t3 -43q-1 -51 -12 -95t-43 -89q5 -33 8.5 -55t6.5 -38.5t6 -30t8 -28.5q2 -6 -0.5 -10t-6.5 -5.5t-8.5 0t-7.5 7.5q-10 35 -15.5 65t-12.5 69q-15 -18 -34 -32.5t-39.5 -25.5t-41 -17t-38.5 -6q-43 0 -61.5 29t-22.5 72.5t0 95t5.5 96
t-5.5 75t-33 32.5q0 -1 -0.5 -1.5t-0.5 -1.5zM306 441q-6 -23 -7.5 -55t0.5 -70q2 -36 7 -76l10 -80q19 35 28.5 75t7.5 77q0 12 -3 30.5t-9 37t-14.5 35.5t-19.5 26zM125 539q2 11 12 11t12 -10q4 -26 13.5 -33.5t21 -2.5t21.5 18.5t15 29.5q7 10 15.5 8t8.5 -14
q-8 -28 -25 -46.5t-36 -22.5t-35.5 10t-22.5 52z" />
    <glyph glyph-name="ubreve" unicode="&#x16d;" 
d="M288 89q-7 -12 -20 -30.5t-29 -33t-34 -19t-36 12.5q-11 11 -18 26t-12 35l-12 -34q-2 -5 -5 -11.5t-7.5 -13t-10 -11.5t-11.5 -6q-16 -2 -27 8t-18.5 28t-12 40.5t-7 44.5t-3.5 41t-1 29q2 12 12 12t12 -10q0 -15 2 -39.5t5.5 -50t10 -48t17.5 -32.5q15 7 24.5 34.5
t15 59.5t8 62t4.5 43q0 1 0.5 1.5t0.5 1.5q1 6 5 8t8 1.5t7.5 -4.5t3.5 -10q0 -1 -0.5 -3t-0.5 -7.5t-0.5 -17t-1.5 -30.5q-1 -32 1.5 -63.5t16.5 -54.5q9 -15 20 -16t22.5 6.5t23 22t21 29.5t16.5 28.5t10 20.5q7 14 14 28.5t10 26.5q7 13 15 10t8 -16q-5 -20 -17.5 -46
t-29.5 -53zM34 339q2 11 12 11t12 -10q4 -26 13.5 -33.5t21 -2.5t21.5 18.5t15 29.5q7 10 15.5 8t8.5 -14q-8 -28 -25 -46.5t-36 -22.5t-35.5 10t-22.5 52z" />
    <glyph glyph-name="Uring" unicode="&#x16e;" horiz-adv-x="420" 
d="M28 414q-5 -11 -15.5 -9t-8.5 15q3 11 11 16t18 5t20.5 -4.5t17.5 -13.5q11 -14 15.5 -38.5t5 -56t-1 -66.5t-2.5 -68t0 -62.5t7 -49.5q7 -24 22.5 -33t34.5 -7.5t40 10.5t41 22.5t36.5 28t25.5 26.5q-6 48 -11 94t-7 94q0 17 -1 38t-0.5 41.5t3.5 38t9 28.5q7 10 17 6
q18 -8 32 -27t23 -42.5t13 -48.5t3 -43q-1 -51 -12 -95t-43 -89q5 -33 8.5 -55t6.5 -38.5t6 -30t8 -28.5q2 -6 -0.5 -10t-6.5 -5.5t-8.5 0t-7.5 7.5q-10 35 -15.5 65t-12.5 69q-15 -18 -34 -32.5t-39.5 -25.5t-41 -17t-38.5 -6q-43 0 -61.5 29t-22.5 72.5t0 95t5.5 96
t-5.5 75t-33 32.5q0 -1 -0.5 -1.5t-0.5 -1.5zM306 441q-6 -23 -7.5 -55t0.5 -70q2 -36 7 -76l10 -80q19 35 28.5 75t7.5 77q0 12 -3 30.5t-9 37t-14.5 35.5t-19.5 26zM170 576q7 0 12 -5q24 -7 33 -22t5 -30t-21 -26t-44 -9q-21 1 -26.5 14t-1 29.5t16 31t26.5 17.5z
M158 508q10 -3 20.5 1.5t15.5 12t0.5 15.5t-25.5 11q-6 -3 -11.5 -8.5t-8 -11.5t-1 -11.5t9.5 -8.5z" />
    <glyph glyph-name="uring" unicode="&#x16f;" 
d="M288 89q-7 -12 -20 -30.5t-29 -33t-34 -19t-36 12.5q-11 11 -18 26t-12 35l-12 -34q-2 -5 -5 -11.5t-7.5 -13t-10 -11.5t-11.5 -6q-16 -2 -27 8t-18.5 28t-12 40.5t-7 44.5t-3.5 41t-1 29q2 12 12 12t12 -10q0 -15 2 -39.5t5.5 -50t10 -48t17.5 -32.5q15 7 24.5 34.5
t15 59.5t8 62t4.5 43q0 1 0.5 1.5t0.5 1.5q1 6 5 8t8 1.5t7.5 -4.5t3.5 -10q0 -1 -0.5 -3t-0.5 -7.5t-0.5 -17t-1.5 -30.5q-1 -32 1.5 -63.5t16.5 -54.5q9 -15 20 -16t22.5 6.5t23 22t21 29.5t16.5 28.5t10 20.5q7 14 14 28.5t10 26.5q7 13 15 10t8 -16q-5 -20 -17.5 -46
t-29.5 -53zM89 354q7 0 12 -5q24 -7 33 -22t5 -30t-21 -26t-44 -9q-21 1 -26.5 14t-1 29.5t16 31t26.5 17.5zM77 286q10 -3 20.5 1.5t15.5 12t0.5 15.5t-25.5 11q-6 -3 -11.5 -8.5t-8 -11.5t-1 -11.5t9.5 -8.5z" />
    <glyph glyph-name="Uhungarumlaut" unicode="&#x170;" horiz-adv-x="420" 
d="M28 414q-5 -11 -15.5 -9t-8.5 15q3 11 11 16t18 5t20.5 -4.5t17.5 -13.5q11 -14 15.5 -38.5t5 -56t-1 -66.5t-2.5 -68t0 -62.5t7 -49.5q7 -24 22.5 -33t34.5 -7.5t40 10.5t41 22.5t36.5 28t25.5 26.5q-6 48 -11 94t-7 94q0 17 -1 38t-0.5 41.5t3.5 38t9 28.5q7 10 17 6
q18 -8 32 -27t23 -42.5t13 -48.5t3 -43q-1 -51 -12 -95t-43 -89q5 -33 8.5 -55t6.5 -38.5t6 -30t8 -28.5q2 -6 -0.5 -10t-6.5 -5.5t-8.5 0t-7.5 7.5q-10 35 -15.5 65t-12.5 69q-15 -18 -34 -32.5t-39.5 -25.5t-41 -17t-38.5 -6q-43 0 -61.5 29t-22.5 72.5t0 95t5.5 96
t-5.5 75t-33 32.5q0 -1 -0.5 -1.5t-0.5 -1.5zM306 441q-6 -23 -7.5 -55t0.5 -70q2 -36 7 -76l10 -80q19 35 28.5 75t7.5 77q0 12 -3 30.5t-9 37t-14.5 35.5t-19.5 26zM224 575q7 10 15.5 7.5t8.5 -13.5l-43 -92q-5 -11 -15.5 -9t-8.5 15zM172 581q7 10 16 7.5t9 -13.5
l-44 -92q-5 -11 -15.5 -9t-8.5 15z" />
    <glyph glyph-name="uhungarumlaut" unicode="&#x171;" 
d="M288 89q-7 -12 -20 -30.5t-29 -33t-34 -19t-36 12.5q-11 11 -18 26t-12 35l-12 -34q-2 -5 -5 -11.5t-7.5 -13t-10 -11.5t-11.5 -6q-16 -2 -27 8t-18.5 28t-12 40.5t-7 44.5t-3.5 41t-1 29q2 12 12 12t12 -10q0 -15 2 -39.5t5.5 -50t10 -48t17.5 -32.5q15 7 24.5 34.5
t15 59.5t8 62t4.5 43q0 1 0.5 1.5t0.5 1.5q1 6 5 8t8 1.5t7.5 -4.5t3.5 -10q0 -1 -0.5 -3t-0.5 -7.5t-0.5 -17t-1.5 -30.5q-1 -32 1.5 -63.5t16.5 -54.5q9 -15 20 -16t22.5 6.5t23 22t21 29.5t16.5 28.5t10 20.5q7 14 14 28.5t10 26.5q7 13 15 10t8 -16q-5 -20 -17.5 -46
t-29.5 -53zM132 354q7 10 15.5 7.5t8.5 -13.5l-43 -92q-5 -11 -15.5 -9t-8.5 15zM80 360q7 10 16 7.5t9 -13.5l-44 -92q-5 -11 -15.5 -9t-8.5 15z" />
    <glyph glyph-name="Uogonek" unicode="&#x172;" horiz-adv-x="420" 
d="M28 414q-5 -11 -15.5 -9t-8.5 15q3 11 11 16t18 5t20.5 -4.5t17.5 -13.5q11 -14 15.5 -38.5t5 -56t-1 -66.5t-2.5 -68t0 -62.5t7 -49.5q7 -24 22.5 -33t34.5 -7.5t40 10.5t41 22.5t36.5 28t25.5 26.5q-6 48 -11 94t-7 94q0 17 -1 38t-0.5 41.5t3.5 38t9 28.5q7 10 17 6
q18 -8 32 -27t23 -42.5t13 -48.5t3 -43q-1 -51 -12 -95t-43 -89q5 -33 8.5 -55t6.5 -38.5t6 -30t8 -28.5q2 -6 -0.5 -10t-6.5 -5.5t-8.5 0t-7.5 7.5q-10 35 -15.5 65t-12.5 69q-15 -18 -34 -32.5t-39.5 -25.5t-41 -17t-38.5 -6q-43 0 -61.5 29t-22.5 72.5t0 95t5.5 96
t-5.5 75t-33 32.5q0 -1 -0.5 -1.5t-0.5 -1.5zM306 441q-6 -23 -7.5 -55t0.5 -70q2 -36 7 -76l10 -80q19 35 28.5 75t7.5 77q0 12 -3 30.5t-9 37t-14.5 35.5t-19.5 26zM329 -25q10 8 17.5 0.5t-0.5 -17.5q-13 -13 -25 -27.5t-15 -27t7 -22t40 -11.5q10 -3 10 -12.5t-11 -11.5
q-38 3 -54 16t-15.5 31.5t13.5 40t33 41.5z" />
    <glyph glyph-name="uogonek" unicode="&#x173;" 
d="M288 89q-7 -12 -20 -30.5t-29 -33t-34 -19t-36 12.5q-11 11 -18 26t-12 35l-12 -34q-2 -5 -5 -11.5t-7.5 -13t-10 -11.5t-11.5 -6q-16 -2 -27 8t-18.5 28t-12 40.5t-7 44.5t-3.5 41t-1 29q2 12 12 12t12 -10q0 -15 2 -39.5t5.5 -50t10 -48t17.5 -32.5q15 7 24.5 34.5
t15 59.5t8 62t4.5 43q0 1 0.5 1.5t0.5 1.5q1 6 5 8t8 1.5t7.5 -4.5t3.5 -10q0 -1 -0.5 -3t-0.5 -7.5t-0.5 -17t-1.5 -30.5q-1 -32 1.5 -63.5t16.5 -54.5q9 -15 20 -16t22.5 6.5t23 22t21 29.5t16.5 28.5t10 20.5q7 14 14 28.5t10 26.5q7 13 15 10t8 -16q-5 -20 -17.5 -46
t-29.5 -53zM223 42q10 8 17.5 0.5t-0.5 -17.5q-13 -13 -25 -27.5t-15 -27t7 -22t40 -11.5q10 -3 10 -12.5t-11 -11.5q-38 3 -54 16t-15.5 31.5t13.5 40t33 41.5z" />
    </font>
</defs>
</svg>
